《蜡笔小新剧场版:不理不理王国的秘宝》(Crayon Shin-chan Movie 2)[台湾版国语][RMVB]

《蜡笔小新剧场版:不理不理王国的秘宝》(Crayon Shin-chan Movie 2)[台湾版国语][RMVB]
  • 片  名  《蜡笔小新剧场版:不理不理王国的秘宝》(Crayon Shin-chan Movie 2)[台湾版国语][RMVB]
  • 简  介  发行时间: 1994年语言: 普通话
  • 类  别  动漫
  • 小  类  剧场动画


  • 详细介绍 简介: 注:大陆翻译是“布里布里王国的宝藏”,而台湾翻译成“不理不理王国的秘宝”
    【内容简介】
    蜡笔小新推出的又一剧场版。这次,小新的妈妈美伢时来运转,竟然抽中了特等奖——全家到美丽的布里布里岛国免费6日游!于是,爸爸、妈妈和小新收拾好东西出发了!孰料,旅程中小新竟然遭人绑架了!原来布里布里国的黄金之都埋藏着神奇的宝藏,当地野心勃勃的白蛇党领袖蟒蛇伯爵妄图掠夺宝藏,而打开黄金之都的钥匙就是布里布里国的森凯诺王子。巧合的是,森凯诺王子和小新长得一模一样,于是小新就被当成森凯诺王子遭到了白蛇党的绑架。小新这一次巧妙之旅又将碰到什么新奇古怪的人和事?
    引用General
    Complete name : Crayon_Shin-chan_FILM1994_不理不理王国的秘宝.rmvb
    Format : RealMedia
    File size : 407 MiB
    Duration : 1h 33mn
    Overall bit rate : 598 Kbps
    Performer : DonsGT
    Video
    ID : 1
    Format : RealVideo 4
    Codec ID : RV40
    Codec ID/Info : Based on AVC (H.264), Real Player 9
    Duration : 1h 33mn
    Bit rate : 534 Kbps
    Width : 800 pixels
    Height : 452 pixels
    Display aspect ratio : 16:9
    Frame rate : 23.976 fps
    Bits/(Pixel*Frame) : 0.062
    Stream size : 357 MiB (88%)
    Audio
    ID : 0
    Format : Cooker
    Codec ID : cook
    Codec ID/Info : Based on G.722.1, Real Player 6
    Duration : 1h 33mn
    Bit rate : 64.1 Kbps
    Channel(s) : 2 channels
    Sampling rate : 44.1 KHz
    Bit depth : 16 bits
    Stream size : 42.9 MiB (11%)
    【影片截图】
    需要续源的请发信息给我
  • 《蜡笔小新剧场版:不理不理王国的秘宝》(Crayon Shin-chan Movie 2)[台湾版国语][RMVB]_large

精选评论

还没人评论呢^^~赶紧抢沙发吧!

相关资源