Westlife -《Coast to Coast》[APE]

Westlife -《Coast to Coast》[APE]
  • 片  名  Westlife -《Coast to Coast》[APE]
  • 简  介  发行时间: 2001年05月21日地区: 爱尔兰语言: 英语
  • 类  别  音乐
  • 小  类  欧美音乐


  • 详细介绍专辑中文名: Coast to Coast歌手: Westlife资源格式: APE发行时间: 2001年05月21日地区: 爱尔兰语言: 英语简介:
    专辑介绍:
    爱尔兰音乐团体 西城男孩 ,五个男孩子在前年组成,而到现在就已经有超过5首单曲登上英国排行榜冠军,专辑销量创白金,丝毫不让老牌组合个歌手。
    新专辑特别收录了西城男孩与其偶像玛丽亚凯莉演唱的菲尔柯林斯八四年的超级金曲“再看我一眼(AgainstAll Odds)”,此曲可望为西城男孩创下六连霸的英国榜单曲冠军纪录。西城男孩便缔造的将是一个连辣妹、麦可杰克森、披头四、猫王等巨星都从未达到的六连霸冠军纪录。
  • Westlife -《Coast to Coast》[APE]_large

精选评论

谢谢LZ改过的CUE........~~~~
有没有Mp3的下载呢,硬盘太少了.......
CUE不正确啊!!!
CUE不对呀楼主~~~怎么能改一下呢???有人知道没????
我晕!!!!!!!!!!!cue里的歌名大多都对不上,
还好,我英语不太烂
听懂一两句后,百度一搜,终于全纠正过来了
!!!!!!!!!!!!!!
嘿嘿
lz还真有意思,想锻炼我们英语水平,也不用这样吧
晕,上面有cue的更正信息。。。。。。。
PERFORMER "westlife"
TITLE "Coast to Coast[VeryCD]"
REM DISCID 100FF013
REM COMMENT ExactAudioCopy v0.95b1
FILE "Westlife.-.[Coast.to.Coast].专辑.(ape).ape" WAVE
TRACK 01 AUDIO
TITLE "My Love"
PERFORMER "westlife"
ISRC GBARL0000212
INDEX 01 00:00:00
TRACK 02 AUDIO
TITLE "What Makes A Man"
PERFORMER "westlife"
ISRC GBARL0000248
INDEX 00 03:51:57
INDEX 01 03:53:32
TRACK 03 AUDIO
TITLE "I Lay My Love On You"
PERFORMER "westlife"
ISRC GBARL0000384
INDEX 00 07:43:62
INDEX 01 07:44:70
TRACK 04 AUDIO
TITLE "Against All Odds"
PERFORMER "westlife"
ISRC USSM10015027
INDEX 00 11:13:40
INDEX 01 11:14:40
TRACK 05 AUDIO
TITLE "When You're Looking Like That"
PERFORMER "westlife"
ISRC GBARL0100059
INDEX 00 14:34:72
INDEX 01 14:36:35
TRACK 06 AUDIO
TITLE "Close"
PERFORMER "westlife"
ISRC GBARL0000250
INDEX 00 18:29:22
INDEX 01 18:30:27
TRACK 07 AUDIO
TITLE "Somebody Needs You"
PERFORMER "westlife"
ISRC GBARL0000244
INDEX 01 22:35:07
TRACK 08 AUDIO
TITLE "Angel's Wings"
PERFORMER "westlife"
ISRC GBARL0000251
INDEX 00 25:42:15
INDEX 01 25:44:40
TRACK 09 AUDIO
TITLE "Soledad"
PERFORMER "westlife"
ISRC GBARL0000247
INDEX 00 29:46:57
INDEX 01 29:49:42
TRACK 10 AUDIO
TITLE "Puzzle Of My Heart"
PERFORMER "westlife"
ISRC GBARL0000243
INDEX 00 33:46:57
INDEX 01 33:47:72
TRACK 11 AUDIO
TITLE "Dreams Come True"
PERFORMER "westlife"
ISRC GBARL0000242
INDEX 00 37:27:05
INDEX 01 37:28:27
TRACK 12 AUDIO
TITLE "No Place That Far"
PERFORMER "westlife"
ISRC GBARL0000253
INDEX 00 40:35:12
INDEX 01 40:36:67
TRACK 13 AUDIO
TITLE "You Make Me Feel"
PERFORMER "westlife"
ISRC GBARL0000256
INDEX 00 43:49:50
INDEX 01 43:50:65
TRACK 14 AUDIO
TITLE "Loneliness Knows Me By Name"
PERFORMER "westlife"
ISRC GBARL0000258
INDEX 01 47:29:17
TRACK 15 AUDIO
TITLE "Fragile Heart"
PERFORMER "westlife"
ISRC GBARL0000255
INDEX 00 50:31:20
INDEX 01 50:33:12
TRACK 16 AUDIO
TITLE "Every Little Thing You Do"
PERFORMER "westlife"
ISRC GBARL0000252
INDEX 00 53:32:20
INDEX 01 53:34:15
TRACK 17 AUDIO
TITLE "Uptown Girl"
PERFORMER "westlife"
ISRC GBARL0100013
INDEX 00 57:41:45
INDEX 01 57:43:27
TRACK 18 AUDIO
TITLE "I Have A Dream (Remix)"
PERFORMER "westlife"
ISRC GBARL0000262
INDEX 00 60:49:60
INDEX 01 60:51:37
TRACK 19 AUDIO
TITLE "My Girl"
PERFORMER "westlife"
ISRC GBARL0000296
INDEX 00 65:05:15
INDEX 01 65:06:65

另外问一下,这是那个版本阿???怎么感觉不对呢,我记得应该是以下几首才对吧??
01 My Love 11 Puzzle Of My Heart
02 What Makes A Man
03 I Lay My Love On You
04 I Have A Dream (Remix)
05 Against All Odds (featuring Mariah Carey)
06 When You're Looking Like That
07 Close 17 Fragile Heart
08 Somebody Needs You
09 Angel's Wings
10 Soledad
11 Puzzle Of My Heart
12 Dreams Come True
13 No Place That Far
14 Close Your Eyes
15 You Make Me Feel
16 Loneliness Knows Me By Name
17 Fragile Heart
18 Every Little Thing You Do
19 Don't Get Me Wrong
去西城中文网看了下,原来是欧欧洲特别发行版
cue不正确啊!!!!
一边练听力,一边在百度中搜听到的歌词,终于把正确的曲目改好了,费了我很多时间。

给大家共享一下:


PERFORMER "westlife"
TITLE "Coast to Coast[VeryCD]"
REM DISCID 100FF013
REM COMMENT ExactAudioCopy v0.95b1
FILE "Westlife.-.[Coast.to.Coast].专辑.(ape).ape" WAVE
TRACK 01 AUDIO
TITLE "My Love"
PERFORMER "westlife"
REM REPLAYGAIN_TRACK_GAIN -8.44 dB
REM REPLAYGAIN_TRACK_PEAK 0.881165
ISRC GBARL0000212
INDEX 01 00:00:00
TRACK 02 AUDIO
TITLE "What Makes A Man"
PERFORMER "westlife"
REM REPLAYGAIN_TRACK_GAIN -8.8 dB
REM REPLAYGAIN_TRACK_PEAK 0.99826
ISRC GBARL0000248
INDEX 00 03:51:57
INDEX 01 03:53:32
TRACK 03 AUDIO
TITLE "I Lay My Love On You"
PERFORMER "westlife"
REM REPLAYGAIN_TRACK_GAIN -8.53 dB
REM REPLAYGAIN_TRACK_PEAK 0.881134
ISRC GBARL0000384
INDEX 00 07:43:62
INDEX 01 07:44:70
TRACK 04 AUDIO
TITLE "Against All Odds (featuring Mariah Carey)"
PERFORMER "westlife"
REM REPLAYGAIN_TRACK_GAIN -7.76 dB
REM REPLAYGAIN_TRACK_PEAK 0.997009
ISRC USSM10015027
INDEX 00 11:13:40
INDEX 01 11:14:40
TRACK 05 AUDIO
TITLE "When You're Looking Like That"
PERFORMER "westlife"
ISRC GBARL0100059
INDEX 00 14:34:72
INDEX 01 14:36:35
TRACK 06 AUDIO
TITLE "Close"
PERFORMER "westlife"
ISRC GBARL0000250
INDEX 00 18:29:22
INDEX 01 18:30:27
TRACK 07 AUDIO
TITLE "Somebody Needs You"
PERFORMER "westlife"
ISRC GBARL0000244
INDEX 01 22:35:07
TRACK 08 AUDIO
TITLE "Angel's Wings"
PERFORMER "westlife"
ISRC GBARL0000251
INDEX 00 25:42:15
INDEX 01 25:44:40
TRACK 09 AUDIO
TITLE "Soledad"
PERFORMER "westlife"
ISRC GBARL0000247
INDEX 00 29:46:57
INDEX 01 29:49:42
TRACK 10 AUDIO
TITLE "Puzzle Of My Heart"
PERFORMER "westlife"
ISRC GBARL0000243
INDEX 00 33:46:57
INDEX 01 33:47:72
TRACK 11 AUDIO
TITLE "Dreams Come True"
PERFORMER "westlife"
ISRC GBARL0000242
INDEX 00 37:27:05
INDEX 01 37:28:27
TRACK 12 AUDIO
TITLE "No Place That Far"
PERFORMER "westlife"
REM REPLAYGAIN_TRACK_GAIN -7.33 dB
REM REPLAYGAIN_TRACK_PEAK 0.996094
ISRC GBARL0000253
INDEX 00 40:35:12
INDEX 01 40:36:67
TRACK 13 AUDIO
TITLE "You Make Me Feel"
PERFORMER "westlife"
ISRC GBARL0000256
INDEX 00 43:49:50
INDEX 01 43:50:65
TRACK 14 AUDIO
TITLE "Loneliness Knows Me By Name"
PERFORMER "westlife"
REM REPLAYGAIN_TRACK_GAIN -9.75 dB
REM REPLAYGAIN_TRACK_PEAK 0.988678
ISRC GBARL0000258
INDEX 01 47:29:17
TRACK 15 AUDIO
TITLE "Fragile Heart"
PERFORMER "westlife"
REM REPLAYGAIN_TRACK_GAIN -7.74 dB
REM REPLAYGAIN_TRACK_PEAK 0.99588
ISRC GBARL0000255
INDEX 00 50:31:20
INDEX 01 50:33:12
TRACK 16 AUDIO
TITLE "Every Little Thing You Do"
PERFORMER "westlife"
REM REPLAYGAIN_TRACK_GAIN -7.87 dB
REM REPLAYGAIN_TRACK_PEAK 0.995087
ISRC GBARL0000252
INDEX 00 53:32:20
INDEX 01 53:34:15
TRACK 17 AUDIO
TITLE "Uptown Girl"
PERFORMER "westlife"
REM REPLAYGAIN_TRACK_GAIN -7.92 dB
REM REPLAYGAIN_TRACK_PEAK 0.995239
ISRC GBARL0100013
INDEX 00 57:41:45
INDEX 01 57:43:27
TRACK 18 AUDIO
TITLE "I Have A Dream"
PERFORMER "westlife"
REM REPLAYGAIN_TRACK_GAIN -8.83 dB
REM REPLAYGAIN_TRACK_PEAK 0.995575
ISRC GBARL0000262
INDEX 00 60:49:60
INDEX 01 60:51:37
TRACK 19 AUDIO
TITLE "My Girl"
PERFORMER "westlife"
REM REPLAYGAIN_TRACK_GAIN -8.41 dB
REM REPLAYGAIN_TRACK_PEAK 0.996704
ISRC GBARL0000296
INDEX 00 65:05:15
INDEX 01 65:06:65



但是歌曲的时间段没有改,太麻烦了,不过CUE的歌名是正确对应APE的!!
好大的噪音,到底怎么回事啊?
比64KBS的WMA还要差劲
呵呵,这次楼主应该改正过来吧,不管怎样,谢谢你的分享。
感谢风之殇提供正确的cue信息.