雨果唱片 -《女娲》HRP7155-2[APE]

雨果唱片 -《女娲》HRP7155-2[APE]
  • 片  名  雨果唱片 -《女娲》HRP7155-2[APE]
  • 简  介  无
  • 类  别  音乐
  • 小  类  古典音乐


  • 详细介绍专辑中文名: 女娲艺术家: 雨果唱片资源格式: APE版本: HRP7155-2地区: 大陆语言: 普通话简介: 唱片介绍:
    金秋十月,中国北京不单是葱翠峥嵘了,微微的秋风,带来了树叶的金黄,更使得这座文化古都具有古色苍龙之慨。
    十月十二日晚,我来到北京音乐厅,这里脱离了尘世的喧嚣,这里是传播高雅艺术的最高殿堂,这里将要举行“新加坡潘耀田作品音乐会”。舞台两侧摆满了北京文化界敬献的花篮,北京音乐台台长、录音专家邵军亲自出马为音乐会做现场录音,动用了世界顶级的录音器材: B K 4040 PAIRED MIC, STELLAVOX DAT, FM ACOUSTIC MICPREAMP...
    潘耀田是新加坡人熟悉的作曲家。他在学生时代就对音乐情有独衷,无论是对华乐、西乐,还是作曲都产生了浓厚的兴趣。七十年代初期,潘君师从新加坡著名作曲家、国家文化奖得主梁容平先生,期间所作歌曲屡次获奖。八十年代初,获得新加坡交响乐团奖学金前往澳洲昆士兰音乐学院深造,主修作曲与长笛演奏。四年的留学生涯中,三度荣获该院的“全年最佳作曲奖”。一九八四年在亚洲作曲家大会上发表了作品《秋》,并获得该会所颁“入野义郎纪念奖”。十几年的学习与实践(不仅把所学的理论用于写作,而且尝试创作不同乐器的组合形式,并常常亲自参加乐队演奏和指挥)为他的写作打下了坚实的基础。自八十年代中期,他才思泉涌,在创作交响乐、华乐以及室内乐的同时,涉足于影视舞台话剧音乐的创作领域,作品多达二十余部。不仅在本国发表和演奏,也曾在中国、日本、英国、澳洲、纽西兰、法国、意大利、马来西亚以及台湾、香港地区发表和广播。俄罗斯爱乐乐团、新加坡交响乐团、新加坡华乐团、上海交响乐团、上海音乐学院、台湾省交响乐团、台湾高雄实验国乐团、香港中乐团及著名的香港雨果唱片公司先后演奏和录音他的作品。1996年潘君荣获新加坡文化界最高荣誉之一的国家文化奖。“潘耀田是位值得新加坡人骄傲的作曲家”(梁荣平先生语)。“由于耀田的光辉,新加坡这音乐文化的弹丸小岛,一下子由暗处向世人显出眉目来,我们能不赞美吗?(陈瑞献,新加坡多元艺术家、国家文化奖得主)”。“他的音乐语言是自然传承着华人传统文化,渗透着新加坡这个国际都市人文特色的,极具潘耀田个性的音乐表达方式(阎惠昌,香港中乐团音乐总监)”。这是人们发自内心的赞美。
    音乐会由大合奏《序曲》开场,这是1985年为新加坡人民协会成立二十五周年庆祝文娱晚会的演出而作。旋律深情质朴,情绪激动热烈。潘君的作品题材广泛,第二首大合奏《儿时的三月天》就是一首具有田园色彩并富有即兴意味的作品。“小时侯,常常听到黄友棣先生所作的歌曲《杜鹃花》,如今,每次重温都会勾起无限回忆,曲名里‘三月天’即取自歌词的第一句‘淡淡的三月天’”,潘君如是说。在我听来,这首音乐犹如一幅儿童画,“淡淡的三月天,杜鹃花开在山坡上,杜鹃花开在小溪旁,多美丽呀!象村庄的小姑娘”。色彩、线条不拘一格,似信手拈来,天真无邪。弹拨乐合奏《谜》,发挥了这个群体极富个性的“点”的优势,一反创作常态,不先呈示主题,而是由变奏开始,几经琵琶、三弦、扬琴等“珠落玉盘”地交替变奏,最后揭出主题“谜底”?云南民歌《祝英台》,音乐轻松活泼。《寓言音诗四首》是一首二胡及打击乐双协奏曲,创作灵感来自新加坡多元艺术家陈献瑞先生的四首寓言诗:秧意、
  • 雨果唱片 -《女娲》HRP7155-2[APE]_large

精选评论

楼主,请问有源吗?
谢谢分享 我要升级!!!!!
PERFORMER "雨果唱片"
TITLE "女娲"
FILE "雨果唱片.-.[女娲].专辑.(APE).ape" WAVE
TRACK 01 AUDIO
TITLE "第二民族交响乐"
PERFORMER "雨果"
INDEX 01 00:00:00
TRACK 02 AUDIO
TITLE "女娲"
PERFORMER "雨果"
INDEX 00 10:49:11
INDEX 01 10:56:72
TRACK 03 AUDIO
TITLE "神女赋"
PERFORMER "雨果"
INDEX 00 31:41:60
INDEX 01 31:49:52
TRACK 04 AUDIO
TITLE "南词"
PERFORMER "雨果"
INDEX 00 47:25:37
INDEX 01 47:32:37
TRACK 05 AUDIO
TITLE "海神音诗"
PERFORMER "雨果"
INDEX 00 54:37:34
INDEX 01 54:44:55