Medwyn Goodall -《梅林法师》(Merlin)[分轨][FLAC]

Medwyn Goodall -《梅林法师》(Merlin)[分轨][FLAC]
  • 片  名  Medwyn Goodall -《梅林法师》(Merlin)[分轨][FLAC]
  • 简  介  Douban1405245:9.1(52 votes)发行时间: 1990年
  • 类  别  音乐
  • 小  类  新世纪音乐


  • 详细介绍简介: 音乐类别:新世纪音乐 凯尔特风
    唱片厂商:New World Music
    专辑介绍:
      从古至今,了不起的神秘主义者都在倡导人类对于现实内在平静的需求。Merlin音乐试图鼓舞心灵,唤醒我们的记忆,透过意想不到的美寻求一种抚慰灵魂的声音。此张专辑是 Medwyn Goodall 德鲁伊神秘三部曲的最后一部,采用古老的器乐编曲,从玄奥的唯美和令人惊喜的特别印象中延伸出温和与协调,激发喜悦与健康的情绪。
    试听:Lady Of The Lake

    试听:Tyntagyll
  • Medwyn Goodall -《梅林法师》(Merlin)[分轨][FLAC]_large

精选评论

完档截图:





用来放松不错!感谢楼主!
跟diablo里的德鲁伊不像啊!
我的Diablo!
我年轻的岁月,就像一条河,
流到今天都快成浑汤了。
很喜欢Medwyn Goodall神秘又清新音乐,谢谢分享.
楼主能否发完梅德温的德鲁伊三部曲么,很喜欢梅德温的作品。
碟名法师与中国佛教中的法师不是一回事吧?试听了下,舒缓的节奏中有一股热流往外延伸寻找天籁的感觉,神秘而又温和,鼓舞人心...感谢楼主分享的无损,最喜爱这种格式了。
非常喜欢Medwyn Goodall作品的,支持楼主分享这么好的音乐!
REM GENRE New Age
REM DATE 1990
PERFORMER "Medwyn Goodall"
TITLE "Merlin"
FILE "Medwyn Goodall - Merlin.wav" WAVE
TRACK 01 AUDIO
TITLE "Myrrdin"
INDEX 01 00:00:00
TRACK 02 AUDIO
TITLE "Mystic Potions"
INDEX 01 07:17:37
TRACK 03 AUDIO
TITLE "Tyntagyll"
INDEX 01 16:11:60
TRACK 04 AUDIO
TITLE "Lady Of The Lake"
INDEX 01 21:54:70
TRACK 05 AUDIO
TITLE "The Sword"
INDEX 01 26:48:22
TRACK 06 AUDIO
TITLE "Alchemy"
INDEX 01 33:16:72
TRACK 07 AUDIO
TITLE "Druid's Return"
INDEX 01 42:40:22
看到楼上有这么多网友推荐,我也忍不住下载了。谢谢楼主分享!
感觉不错 支持!!!
既然是分轨,10贴的有用么?