黎瑞恩 -《我从这里开始》[APE]

黎瑞恩 -《我从这里开始》[APE]
  • 片  名  黎瑞恩 -《我从这里开始》[APE]
  • 简  介  音乐风格: 流行发行时间: 1991年地区: 香港语言: 粤语
  • 类  别  音乐
  • 小  类  华语音乐


  • 详细介绍专辑中文名: 我从这里开始歌手: 黎瑞恩音乐风格: 流行资源格式: APE发行时间: 1991年地区: 香港语言: 粤语简介:
    唱片公司:PolyGram
    专辑介绍:
    18岁就有了第一首 十大 的黎瑞恩,其实是幸运的!当年哪个稚气未脱的小女孩用她厚实的嗓音演绎 发誓 的时候,谁都不曾料到她6年后就离开了!这6年时间里,黎瑞恩专心唱着自己一成不变温暖的情歌,不做丝毫颠覆的事情,最初的清纯一直延续到最后,顶着 小邓丽君 的美名,她是那个时代香港乐坛最清新的一抹绿光!我和大家一样,也是从 一人有一个梦想 认识她的。老实说,听这首歌前我还以为是翻唱蓝心湄的 一见钟情 !许久后才知道她才是原唱!那种不过分渲染的情绪,厚厚的极度暖人心扉的声音让我深深着迷。后来,回过头开始寻找她的唱片,幸运的是从 阳光路上 开始,她所有专辑内地都引进了,然后 一人有一个梦想 也发行了内地版,整个高中,我收集了她所有唱片,依恋着她最打动我心的歌声!无可否认,宝记在打造玉女歌手方面实在是高人一筹!黎瑞恩的成功也归功于唱片公司没有过多让她参与其他工作。作为当时宝丽金旗下最小的歌手,她被保护的很好。而至始至终,黎瑞恩也专注在歌唱事业里,并无太大的野心!九十年代中期,黎瑞恩也迈进自己事业的高峰,《阳光路上》,你《是我生命中一切》,《恩想》全部登上IFPI的十大, 雨季不再来 , 多情 , 觉悟 , 阳光路上 , 预先彩排的分手 也为黎瑞恩带来极高的人气,不同于其他玉女们柔情十足的娇滴滴,她磁性的嗓音得到的认同要多的多,也是由于连续几张优秀的广东唱片,她也卖入在当时少数能开演唱会女歌手的行列!
  • 黎瑞恩 -《我从这里开始》[APE]_large

精选评论

楼主发布很规范,希望没有发帖经验的朋友可以多参考

感谢发布!
踩一个,听听小邓丽君的歌
我还没听过这个歌手呢,太井底之蛙了。试试好不好听。
320k......please........lz
离开了是退出演绎圈吗?
PERFORMER "黎瑞恩"
TITLE "黎瑞恩-我从这里开始"
FILE "黎瑞恩-我从这里开始.ape" WAVE
TRACK 01 AUDIO
TITLE "我从这里开始(音乐) "
PERFORMER "黎瑞恩"
INDEX 01 00:00:00
TRACK 02 AUDIO
TITLE "发誓 "
PERFORMER "黎瑞恩"
INDEX 01 00:36:12
TRACK 03 AUDIO
TITLE "HOW DEEP IS YOUR LOVE "
PERFORMER "黎瑞恩"
INDEX 01 04:35:00
TRACK 04 AUDIO
TITLE "专一 "
PERFORMER "黎瑞恩"
INDEX 01 08:40:42
TRACK 05 AUDIO
TITLE "相信不会再一起 "
PERFORMER "黎瑞恩"
INDEX 01 12:50:00
TRACK 06 AUDIO
TITLE "随你喜欢"
PERFORMER "黎瑞恩"
INDEX 01 17:36:00
TRACK 07 AUDIO
TITLE "多么想你 "
PERFORMER "黎瑞恩"
INDEX 01 21:46:10
TRACK 08 AUDIO
TITLE "倚靠在你身 "
PERFORMER "黎瑞恩"
INDEX 01 25:56:51
TRACK 09 AUDIO
TITLE "莫失莫忘 "
PERFORMER "黎瑞恩"
INDEX 01 29:44:40
TRACK 10 AUDIO
TITLE "你说吧! "
PERFORMER "黎瑞恩"
INDEX 01 34:12:50
TRACK 11 AUDIO
TITLE "终于… "
PERFORMER "黎瑞恩"
INDEX 01 37:08:00
TRACK 12 AUDIO
TITLE "道别!(音乐) "
INDEX 01 41:02:20