B.A.D. -《B.A.D.同名专辑》引进版[APE]

B.A.D. -《B.A.D.同名专辑》引进版[APE]
  • 片  名  B.A.D. -《B.A.D.同名专辑》引进版[APE]
  • 简  介  Douban1406256:8.4(20261 votes)音乐风格: 流行发行时间: 2005年01月01日地区: 台湾语言: 普通话
  • 类  别  音乐
  • 小  类  华语音乐


  • 详细介绍简介: 专辑介绍:
    坏是潜在基因 你敢不敢释放?
    新坏男孩B.A.D第5张同名专辑,同时也是最后一张。自两千年“不安静”开始 坦率自我就是唯一精神。台湾/韩国顶尖制作群重金打造 2005跨界音乐与舞蹈最时尚的指标团体。
    推荐歌曲:
    着魔 — B.A.D超强舞曲破坏力 释放内在最热情的欲望
    爱上了坏 — 时尚R B情歌代表 坏男孩就是令你无法抗拒!
    靠近一点 — B.A.D/神话 男孩团体跨国大合作 中韩HIP HOP曲风完美融合
    Don’t Say Goodbye — 由团员Ben亲自创作 最内心的爱情告白
    最后一个拥抱 — 新世代爱情观 轻快曲风+RAP纾解分离时的悲伤感

  • B.A.D. -《B.A.D.同名专辑》引进版[APE]_large

精选评论

Exact Audio Copy V0.99 prebeta 1 from 25. May 2007

EAC 抓取日志文件从9. 十一月 2007, 10:58

未知艺术家 / 未知标题

使用驱动器 :ATAPI DVD-ROM 16XMax Adapter: 0 ID: 3

读取模式 : 保护
使用精确流 : 是
废除音频缓冲 : 是
使用 C2 指针 : 是

读取偏移校正 : 0
读取 Lead-In 和 Lead-Out : 否
用静音填充抓取中丢失偏移的采样 : 是
去除首尾静音块 : 否
已用接口 : Win NT 及 2000 本地 Win32 接口

所用输出格式 : 内部 WAV 函数
样本格式 : 44.100 Hz;16 Bit;立体声


被抓轨 CD 的 TOC

音轨 | 开始 | 长度 | 起始扇区 | 结尾扇区
--------------------------------------------------
1 | 0:00.00 | 1:09.35 | 0 | 5209
2 | 1:09.35 | 4:06.27 | 5210 | 23686
3 | 5:15.62 | 3:27.00 | 23687 | 39211
4 | 8:42.62 | 3:35.13 | 39212 | 55349
5 | 12:18.00 | 4:21.12 | 55350 | 74936
6 | 16:39.12 | 1:42.25 | 74937 | 82611
7 | 18:21.37 | 4:26.15 | 82612 | 102576
8 | 22:47.52 | 3:57.73 | 102577 | 120424
9 | 26:45.50 | 4:09.47 | 120425 | 139146
10 | 30:55.22 | 3:49.73 | 139147 | 156394
11 | 34:45.20 | 3:41.02 | 156395 | 172971
12 | 38:26.22 | 0:43.13 | 172972 | 176209
13 | 39:09.35 | 3:08.67 | 176210 | 190376
14 | 42:18.27 | 3:34.60 | 190377 | 206486


范围状态及错误

已选择范围

文件名 E:未知艺术家 - 未知标题.wav

峰值电平 98.8 %
范围质量 100.0 %
复制 CRC 4C1906AB
复制成功

没有错误发生

状态报告结尾