《南家三姐妹~欢迎回来~主题曲》(Minami-Ke-Okaeri)[ED Single - 絶対カラフル宣言][附BK][APE+MP3(320Kbps)]

《南家三姐妹~欢迎回来~主题曲》(Minami-Ke-Okaeri)[ED Single - 絶対カラフル宣言][附BK][APE+MP3(320Kbps)]
  • 片  名  《南家三姐妹~欢迎回来~主题曲》(Minami-Ke-Okaeri)[ED Single - 絶対カラフル宣言][附BK][APE+MP3(320Kbps)]
  • 简  介  发行时间: 2009年01月21日
  • 类  别  动漫
  • 小  类  动漫周边


  • 详细介绍中文名: 南家三姐妹~欢迎回来~主题曲英文名: Minami-Ke-Okaeri别名: みなみけ おかえり版本: [ED Single - 絶対カラフル宣言][附BK][APE+MP3(320Kbps)]发行时间: 2009年01月21日地区: 日本简介:
    【剧情介绍】
    日本蠢蛋代表的二女夏奈。
    毒舌但实际上喜欢姐姐的三女千秋。
    总是微笑着守护着这样的妹妹们的长女春香。
    在她们的周围有着很多充满个性的友人,
    有时吵嘴,有时大家一起悠闲…
    就是描绘着这样的三姐妹的平凡的日常的作品。
    【专辑介绍】
    TVアニメ「みなみけ おかえり」エンディングテーマ: 絶対カラフル宣言
    南春香(CV: 佐藤利奈)、南夏奈(CV: 井上麻里奈)、南千秋(CV: 茅原実里)
    商品番号: KICM-3187
    メディア: マキシシングルCD
    組枚数: 1
    発売日: 2009/01/21
    価格: 1200円(税込)
    内容
    みなみけ第3期となる、TVアニメ「みなみけ おかえり」のエンディングテーマ! 歌うのは、みなみけ三姉妹! 田中誠輝描き下ろしジャケット。
    【Artist/Cast】
    菊谷知樹 (編曲者) ENA☆ (作詞者) 
    南千秋(茅原実里) (アーティスト) うらん (作詞者) 
    南夏奈(井上麻里奈) (アーティスト) 南春香(佐藤利奈) (アーティスト) 
    山口朗彦 (作曲者) 
    【收录曲目】
    1. 絶対カラフル宣言
    2. ワンモア!
    3. 絶対カラフル宣言 カラオケ
    4. ワンモア! カラオケ
  • 《南家三姐妹~欢迎回来~主题曲》(Minami-Ke-Okaeri)[ED Single - 絶対カラフル宣言][附BK][APE+MP3(320Kbps)]_large

精选评论

好看吗?没有看过!
好東西 支持
rele出山了- -!
夏奈最高~!
终于等来了
终于等到了
自制UTF-8版cue,粘贴到一个文本文件内即可:

PERFORMER "南春香(佐藤利奈)?南夏奈(井上麻里奈)?南千秋(茅原実里)"
TITLE "絶対カラフル宣言"
FILE "zettai_colorful_sengen.ape" WAVE
TRACK 01 AUDIO
TITLE "絶対カラフル宣言"
PERFORMER "南春香(佐藤利奈)?南夏奈(井上麻里奈)?南千秋(茅原実里)"
ISRC JPKI00818203
INDEX 01 00:00:00
TRACK 02 AUDIO
TITLE "ワンモア!"
PERFORMER "南春香(佐藤利奈)?南夏奈(井上麻里奈)?南千秋(茅原実里)"
ISRC JPKI00818204
INDEX 00 03:51:20
INDEX 01 03:53:20
TRACK 03 AUDIO
TITLE "絶対カラフル宣言 (カラオケ)"
PERFORMER " "
ISRC JPKI00818205
INDEX 00 07:38:09
INDEX 01 07:40:09
TRACK 04 AUDIO
TITLE "ワンモア! (カラオケ)"
PERFORMER " "
ISRC JPKI00818206
INDEX 00 11:31:74
INDEX 01 11:33:74
第三季歌还是不错的。。。。