原声大碟 -《幽灵公主交响组曲》(Princess Mononoke)[APE]

原声大碟 -《幽灵公主交响组曲》(Princess Mononoke)[APE]
  • 片  名  原声大碟 -《幽灵公主交响组曲》(Princess Mononoke)[APE]
  • 简  介  发行时间: 2001年05月15日
  • 类  别  音乐
  • 小  类  原声音乐


  • 详细介绍简介: 专辑介绍:
    作为宫崎俊“御用”音乐制作,久石让在宫崎俊作品中所起的作用,可以用画龙点睛来形容。这张幽灵公主电影原声的交响乐组曲,充分体现了久石让一贯的作曲风格,整体气势恢弘,细节细致入微。
    这张CD和原声碟的不同之处,在于有捷克爱乐乐团(Czech Philharmonic Orchestra)作为伴奏。该乐团成立于1896年,是捷克代表性乐团,特别是弦乐部分早享佳誉,合奏力强,具有古雅的情调。
    整张CD听下来,心神舒畅,说不出的舒服感觉。这个并不是单纯的节选原声大碟中的部分曲乐,而是重新录制的组乐,并由捷克爱乐乐团和东京交响乐团合作演绎,因此论收藏价值,组乐比原声来的珍贵。
    感谢will_mok 兄发布MP3版本的介绍,并附下~
    另外风花真白兄发布的10Track版的幽灵公主Image Album版,我还有些不解,和我事先知道的8Track版交响组曲,和33Track版灵感配乐版都有不同,我下来分析一下先~呵呵。
    这个是日版原盘~音质保证。(刚淘到时幸福的要哭了的说,HOHO)
  • 原声大碟 -《幽灵公主交响组曲》(Princess Mononoke)[APE]_large

精选评论

不错的碟。。。。听起来感觉不错
cue文件有问题

没标题什么的,也无法读取,改了里面的文件名也没用
REM DISCID 600B1B08
REM COMMENT ExactAudioCopy v0.95b1
PERFORMER "久石让"
TITLE "幽灵公主交响乐版"
FILE "原声大碟.-.[Princess.Mononoke.-.幽灵公主交响乐版].专辑.(APE)" WAVE
TRACK 01 AUDIO
TITLE "アシタカせっき"
INDEX 01 00:00:00
TRACK 02 AUDIO
TITLE "TA·TA·RI·GAMI"
INDEX 00 05:46:27
INDEX 01 05:48:37
TRACK 03 AUDIO
TITLE "旅立ち~西へ~"
INDEX 00 12:31:20
INDEX 01 12:33:30
TRACK 04 AUDIO
TITLE "もののけ姫"
INDEX 00 17:29:42
INDEX 01 17:31:57
TRACK 05 AUDIO
TITLE "シシ神の森"
INDEX 00 22:13:00
INDEX 01 22:14:62
TRACK 06 AUDIO
TITLE "レクイエム~呪われた力~"
INDEX 00 28:23:47
INDEX 01 28:24:32
TRACK 07 AUDIO
TITLE "黄泉の世界~生と死のアダージョ~"
INDEX 00 35:33:05
INDEX 01 35:34:52
TRACK 08 AUDIO
TITLE "アシタカとサン"
INDEX 00 42:52:55
INDEX 01 42:55:72


还是自己改了一下,进行内嵌
感谢 楼主的 资源 和 楼上的兄弟 0.0
还是不能用!!!!!!!
发一个改好的 测试可用


REM DISCID 600B1B08
REM COMMENT ExactAudioCopy v0.95b1
PERFORMER "久石讓"
TITLE "幽靈公主交響組曲"
FILE "原声大碟.-.[Princess Mononoke.-.幽靈公主交響組曲].专辑.(APE).ape" WAVE
TRACK 01 AUDIO
TITLE "アシタカせっき"
PERFORMER "久石讓"
INDEX 01 00:00:00
TRACK 02 AUDIO
TITLE "TA·TA·RI·GAMI"
PERFORMER "久石讓"
INDEX 00 05:46:27
INDEX 01 05:48:37
TRACK 03 AUDIO
TITLE "旅立ち~西へ~"
PERFORMER "久石讓"
INDEX 00 12:31:20
INDEX 01 12:33:30
TRACK 04 AUDIO
TITLE "もののけ姫"
PERFORMER "久石讓"
INDEX 00 17:29:42
INDEX 01 17:31:57
TRACK 05 AUDIO
TITLE "シシ神の森"
PERFORMER "久石讓"
INDEX 00 22:13:00
INDEX 01 22:14:62
TRACK 06 AUDIO
TITLE "レクイエム~呪われた力~"
PERFORMER "久石讓"
INDEX 00 28:23:47
INDEX 01 28:24:32
TRACK 07 AUDIO
TITLE "黄泉の世界~生と死のアダージョ~"
PERFORMER "久石讓"
INDEX 00 35:33:05
INDEX 01 35:34:52
TRACK 08 AUDIO
TITLE "アシタカとサン"
PERFORMER "久石讓"
INDEX 00 42:52:55
INDEX 01 42:55:72
还是不能用啊,只能从头听下去了
原声大碟.-.[Princess.Mononoke.-.幽灵公主交响乐版].专辑.(APE)
这个后面再加上个.ape就好啦
原声大碟.-.[Princess.Mononoke.-.幽灵公主交响乐版].专辑.(APE).ape
还是不可用。。。最后一首曲子的结束时间明显不对。。。比少了一段
谢谢4楼和7楼,似乎大多cue多少有点错误
用了7楼的cue,没有问题啊,并没有发现10楼的所谓少了一段
超好东西的说
感动 我也要努力的淘一张