原声大碟 -《难兄难弟》(Old Time Buddy)[APE]

原声大碟 -《难兄难弟》(Old Time Buddy)[APE]
  • 片  名  原声大碟 -《难兄难弟》(Old Time Buddy)[APE]
  • 简  介  发行时间: 1998年
  • 类  别  音乐
  • 小  类  原声音乐


  • 详细介绍专辑中文名: 难兄难弟专辑英文名: Old Time Buddy艺术家: 原声大碟资源格式: APE发行时间: 1998年地区: 香港语言: 粤语简介:
    专辑介绍:
    专辑名称:难兄难弟电视原声大碟
    语言:粤语
    歌手:罗嘉良/张可颐/吴镇宇/宣萱
    唱片公司:丽音唱片
    出版时间:1998年
    这是一张非常搞笑亦好听的电视原声,1到10首是由(罗嘉良/张可颐/吴镇宇/宣萱)四人演唱电视里面的歌曲,而11到27首是电视里面的原声配乐!
    感谢HDCD论坛的hfjtun斑竹原发!
    剧情介绍:
      一部由横跨60年代到90年代的时装喜剧《难兄难弟》,重现当年香港电影圈红极一时的两生两旦之风采,掀起一片怀旧热潮!
      谢圆(吴镇宇)与李奇(罗嘉良)为共赴患难、“同捞同煲”的好兄弟,二人偶然一起闯进五光十色的电影圈,但际遇却大相径庭。圆瞬间成为男主角,跟当时得令的两大玉女邵芳芳(宣萱)及程宝珠(张可颐)结下不少片缘,而奇则仍是半红不黑。
      奇本恋芳,但芳却因朝夕相对与圆热恋,奇大受打击。后他与珠发展,又遭珠母极力反对,被迫分手,情路可谓非常坎坷。而芳与圆最后亦因误会而分开。
       不久,奇终大红,惜生不逢时,粤语片开始走下坡路;同时,奇又遭人揭发其父为杀人犯,令他的演艺事业一蹶不振。奇怀疑是圆揭发其身世,再加上种种误会,兄弟终反目。
      三十年后,圆、奇、芳、珠俱步入中年,究竟时间又能否化解他们之间的恩怨情仇呢?
  • 原声大碟 -《难兄难弟》(Old Time Buddy)[APE]_large

精选评论

谢谢,刚刚看完难兄难弟。
罗嘉良把声真系唔错~~~~~~~
呵呵~好野~
好慢好慢啊,下不下了啊~~~~
我也下不了啊!好心人给点资源吧~~感谢了
只要有一丁点源,下一年也成
这张碟里的配乐絶对好听,08年12月28号到今天,下了一个月,才43.8%,我忍耐!!!!!!!!!!
找了很久才找到,不过速度很慢
供源吧,供源吧,供源吧
谢谢楼主!想听听。
补个CUE文件


REM DATE 1998
PERFORMER "罗嘉良/张可颐/吴镇宇/宣萱"
TITLE "難兄難弟电视原声大碟"
FILE "原声大碟.-.[难兄难弟].专辑.(ape).ape" WAVE
TRACK 01 AUDIO
TITLE "難兄難弟"
PERFORMER "罗嘉良/张可颐/吴镇宇/宣萱"
INDEX 01 00:00:00
TRACK 02 AUDIO
TITLE "望兩望 笑一笑"
PERFORMER "罗嘉良/张可颐"
FLAGS DCP
INDEX 00 02:50:72
INDEX 01 02:58:62
TRACK 03 AUDIO
TITLE "蝶兒雙雙"
PERFORMER "罗嘉良/张可颐/吴镇宇/宣萱"
FLAGS DCP
INDEX 00 05:38:67
INDEX 01 05:46:57
TRACK 04 AUDIO
TITLE "心相印"
PERFORMER "吴镇宇/宣萱"
FLAGS DCP
INDEX 00 07:58:37
INDEX 01 08:06:27
TRACK 05 AUDIO
TITLE "莫負青春"
PERFORMER "张可颐/宣萱"
FLAGS DCP
INDEX 00 10:25:62
INDEX 01 10:33:52
TRACK 06 AUDIO
TITLE "姑娘十八似花嬌 (攪笑版)"
PERFORMER "宣萱/吴镇宇"
FLAGS DCP
INDEX 00 12:36:25
INDEX 01 12:44:15
TRACK 07 AUDIO
TITLE "姑娘十八似花嬌 (正常版)"
PERFORMER "宣萱/罗嘉良"
FLAGS DCP
INDEX 00 15:52:25
INDEX 01 16:00:15
TRACK 08 AUDIO
TITLE "情花開"
PERFORMER "宣萱/罗嘉良"
FLAGS DCP
INDEX 00 19:08:40
INDEX 01 19:16:30
TRACK 09 AUDIO
TITLE "奇哥"
PERFORMER "罗嘉良/张可颐"
FLAGS DCP
INDEX 00 21:45:60
INDEX 01 21:53:50
TRACK 10 AUDIO
TITLE "誰更重要"
PERFORMER "罗嘉良"
FLAGS DCP
INDEX 00 24:54:64
INDEX 01 25:02:54
TRACK 11 AUDIO
TITLE "Theme - Soft"
PERFORMER "音乐"
FLAGS DCP
INDEX 00 29:18:07
INDEX 01 29:25:72
TRACK 12 AUDIO
TITLE "Theme - Passion"
PERFORMER "音乐"
FLAGS DCP
INDEX 00 31:31:60
INDEX 01 31:39:50
TRACK 13 AUDIO
TITLE "Theme - Lonely"
PERFORMER "音乐"
FLAGS DCP
INDEX 00 33:54:55
INDEX 01 34:02:45
TRACK 14 AUDIO
TITLE "Theme - Gag"
PERFORMER "音乐"
FLAGS DCP
INDEX 00 36:01:10
INDEX 01 36:09:00
TRACK 15 AUDIO
TITLE "Theme - Sad"
PERFORMER "音乐"
FLAGS DCP
INDEX 00 37:09:40
INDEX 01 37:17:30
TRACK 16 AUDIO
TITLE "2nd Theme - Life"
PERFORMER "音乐"
FLAGS DCP
INDEX 00 39:05:44
INDEX 01 39:13:34
TRACK 17 AUDIO
TITLE "Theme - Relax"
PERFORMER "音乐"
FLAGS DCP
INDEX 00 41:05:32
INDEX 01 41:13:22
TRACK 18 AUDIO
TITLE "Theme - Passion"
PERFORMER "音乐"
FLAGS DCP
INDEX 00 42:16:30
INDEX 01 42:24:20
TRACK 19 AUDIO
TITLE "Theme - Lonely"
PERFORMER "音乐"
FLAGS DCP
INDEX 00 44:28:22
INDEX 01 44:36:12
TRACK 20 AUDIO
TITLE "4th Theme - Joy of Life"
PERFORMER "音乐"
FLAGS DCP
INDEX 00 46:27:42
INDEX 01 46:35:32
TRACK 21 AUDIO
TITLE "Theme - Alone"
PERFORMER "音乐"
FLAGS DCP
INDEX 00 48:33:65
INDEX 01 48:41:55
TRACK 22 AUDIO
TITLE "Dancing Ball"
PERFORMER "音乐"
FLAGS DCP
INDEX 00 50:32:17
INDEX 01 50:40:07
TRACK 23 AUDIO
TITLE "Love Blues"
PERFORMER "音乐"
FLAGS DCP
INDEX 00 52:45:57
INDEX 01 52:53:47
TRACK 24 AUDIO
TITLE "C'mon Girls"
PERFORMER "音乐"
FLAGS DCP
INDEX 00 56:17:57
INDEX 01 56:25:47
TRACK 25 AUDIO
TITLE "Joyful"
PERFORMER "音乐"
FLAGS DCP
INDEX 00 57:52:05
INDEX 01 57:59:70
TRACK 26 AUDIO
TITLE "Highway Jam"
PERFORMER "音乐"
FLAGS DCP
INDEX 00 59:28:02
INDEX 01 59:35:67
TRACK 27 AUDIO
TITLE "Let's Swing"
PERFORMER "音乐"
FLAGS DCP
INDEX 00 61:29:50
INDEX 01 61:37:40
罗嘉良开始走红的作品,好经典。在此之前完全无视他的存在,跟一般kelefe没什么区别,然后看了这部片对他加分不少。不过我觉得这部片的成功离不开吴镇宇,有了他才更搞笑。后来第二部换成林家栋,整部片的感觉很异样,都不好看了。