群星 -《宝丽金 最倾情 Vol.3》[APE]

群星 -《宝丽金 最倾情 Vol.3》[APE]
  • 片  名  群星 -《宝丽金 最倾情 Vol.3》[APE]
  • 简  介  音乐风格: 流行发行时间: 1995年地区: 香港语言: 粤语
  • 类  别  音乐
  • 小  类  华语音乐


  • 详细介绍简介: 专辑介绍:
      作为老牌唱片公司,宝丽金可谓是家喻户晓,想必很多网友都是伴着宝丽金的声音长大。拥有宝丽金,拥有我们的过去、现在和未来。
      宝丽金这个系列应该是3个,但这里只有其中的一个,大家喜欢的话,我就继续发扬“人人为我,我为人人”的分享精神。
      介绍自己写的,不好的话不要骂我啊,哈哈
    资源无源请留言或者是短信息!

  • 群星 -《宝丽金 最倾情 Vol.3》[APE]_large

精选评论

非常喜欢粤语歌,支持楼主!
希望楼主能找到另外两张专辑,O(∩_∩)O谢谢楼主共享!
唉,无源
刚放上去要开下机做源
我也来等一等.
经典之作。。。我喜欢。。经典就是好听
宝丽金的,很怀旧。可惜没列明歌手信息,不太喜欢粤语的。纯路过支持不驴了。
PERFORMER "寳麗金群星"
TITLE "最倾情 Vol.3"
REM GENRE Rock
REM DATE 1995
REM DISCID F3118111
REM COMMENT "ExactAudioCopy v0.95b4"
FILE "寳麗金群星 - 最傾情 Vol.3.ape" WAVE
TRACK 01 AUDIO
TITLE "让你愉快"
PERFORMER "张学友"
REM GENRE Pop
REM DATE 1995
INDEX 00 00:00:00
INDEX 01 00:01:00
TRACK 02 AUDIO
TITLE "情缘 (电视剧《阿Sir早晨》插曲)"
PERFORMER "黎明"
REM GENRE Pop
REM DATE 1995
INDEX 00 04:11:28
INDEX 01 04:13:28
TRACK 03 AUDIO
TITLE "把歌谈心"
PERFORMER "关淑怡"
REM GENRE Pop
REM DATE 1995
INDEX 00 08:29:45
INDEX 01 08:31:45
TRACK 04 AUDIO
TITLE "天地初开情已在"
PERFORMER "谭咏麟"
REM GENRE Pop
REM DATE 1995
INDEX 00 12:25:24
INDEX 01 12:27:24
TRACK 05 AUDIO
TITLE "一加一加一的爱"
PERFORMER "草蜢"
REM GENRE Pop
REM DATE 1995
INDEX 00 16:53:73
INDEX 01 16:55:73
TRACK 06 AUDIO
TITLE "只等这一季 (叱咤 903 兰茜夫人剧场之《让我爱你一个夏天》主题曲)"
PERFORMER "周慧敏"
REM GENRE Pop
REM DATE 1995
INDEX 00 21:43:37
INDEX 01 21:45:37
TRACK 07 AUDIO
TITLE "分分钟记起"
PERFORMER "郑嘉颖"
REM GENRE Pop
REM DATE 1995
INDEX 00 26:28:42
INDEX 01 26:30:42
TRACK 08 AUDIO
TITLE "我没有爱错 (叱咤 903 兰茜夫人剧场之《我没有爱错》主题曲)"
PERFORMER "黎明"
REM GENRE Pop
REM DATE 1995
INDEX 00 31:01:61
INDEX 01 31:03:60
TRACK 09 AUDIO
TITLE "当爱变成习惯"
PERFORMER "张学友"
REM GENRE Pop
REM DATE 1995
INDEX 00 35:19:18
INDEX 01 35:21:17
TRACK 10 AUDIO
TITLE "爱你一定快乐"
PERFORMER "黎瑞恩"
REM GENRE Pop
REM DATE 1995
INDEX 00 40:21:01
INDEX 01 40:23:01
TRACK 11 AUDIO
TITLE "倘爱是缘"
PERFORMER "谭咏麟"
REM GENRE Pop
REM DATE 1995
INDEX 00 44:13:03
INDEX 01 44:15:03
TRACK 12 AUDIO
TITLE "越难越爱你"
PERFORMER "汤宝如"
REM GENRE Pop
REM DATE 1995
INDEX 00 48:20:42
INDEX 01 48:22:42
TRACK 13 AUDIO
TITLE "留恋"
PERFORMER "周慧敏"
REM GENRE Pop
REM DATE 1995
INDEX 00 52:59:40
INDEX 01 53:01:40
TRACK 14 AUDIO
TITLE "不要躲避我的眼睛 (电影《中南海保镖》主題曲)"
PERFORMER "王馨平"
REM GENRE Pop
REM DATE 1995
INDEX 00 57:59:05
INDEX 01 58:01:05
TRACK 15 AUDIO
TITLE "一起真的不易"
PERFORMER "汤宝如&苏永康"
REM GENRE Pop
REM DATE 1995
INDEX 00 61:47:59
INDEX 01 61:49:59
TRACK 16 AUDIO
TITLE "爱一次便够"
PERFORMER "草蜢,&黎瑞恩"
REM GENRE Pop
REM DATE 1995
INDEX 00 66:15:31
INDEX 01 66:17:31
TRACK 17 AUDIO
TITLE "爱到最后"
PERFORMER "黎明&周慧敏"
REM GENRE Pop
REM DATE 1995
INDEX 00 70:21:18
INDEX 01 70:23:18
有驴友反映cue文件不能下载,大伙说说能不能啊,不能的话,就直接把上述内容复制到记事本,保存为cue类型即可
粤语的 哦 纯支持一下 路过 谢谢分享哦
正像楼主所说:cue 不能下载。
速度是蛮快的, 而且全粤语。 爽!
谢谢,再上两张吧,强烈要求!