林志炫 -《单身情歌Live精选》[APE]

林志炫 -《单身情歌Live精选》[APE]
  • 片  名  林志炫 -《单身情歌Live精选》[APE]
  • 简  介  发行时间: 1999年地区: 台湾语言: 普通话,英语
  • 类  别  音乐
  • 小  类  华语音乐


  • 详细介绍专辑中文名: 单身情歌Live精选歌手: 林志炫资源格式: APE发行时间: 1999年地区: 台湾语言: 普通话,英语简介: 专辑介绍:
    SONY公司1999年的压箱宝,林志炫的最新专辑《单身情歌 (超炫精选)》发行罗!这张标榜「世纪末绅士摇滚」风味的新旧曲混和专辑,收藏了两首全新歌曲,「单身情歌」与「句点」,以及林志炫从优克李林时代、单飞的三年中,由SONY发行的精选动听歌曲。聆听主打歌「单身情歌」,你会发觉林志炫的曲风有极大的突破与改变,原来一贯温文儒雅的志炫,这回狂野奔放了起来,略带摇滚,但却依然唱出恋人渴望爱却不可得的心情。同时精选收录的「追寻」、「散了吧」到「蒙娜丽莎的眼泪」,甚至「有些女人不能碰」,内涵一致的品味着单身人的心情与对爱情的渴望与挫败,抚慰许多单身族群的心灵。 对於这次的「绅士摇滚」曲风,林志炫觉得,与其说是改变,不如称之为一种尝试。志炫说:「唱这首歌,激发了我声音中的另一种潜能!」因此,就连在服装造型上,志炫也自然而然地呈现出另一种风貌。褪下惯有较正式隆重的衣衫,初尝皮衣、牛仔装扮,志炫的感觉依然充满自信与愉悦,做出的音乐可谓十足的「绅士摇滚」。
  • 林志炫 -《单身情歌Live精选》[APE]_large

精选评论

很不错,喜欢林志炫空灵、华丽、干净、透彻的噪音!
有种穿透心扉的感觉好东东
他的嗓音很纯,谢谢分享
累积美德
非常支持楼主感谢楼主
可惜好像没源了, 都下不了呀
下了半天都没什么反应呀, 有点灰心
有谁下了的, 作源提供一下, 谢谢
帮楼主补一下cue文件.

PERFORMER "林志炫"
TITLE "单身情歌Live精选1"
FILE "單身情歌Live精選1-林志炫.ape" WAVE
TRACK 01 AUDIO
TITLE "单身情歌"
PERFORMER "林志炫"
INDEX 01 00:00:00
TRACK 02 AUDIO
TITLE "散了吧"
PERFORMER "林志炫"
INDEX 00 04:33:51
INDEX 01 04:35:15
TRACK 03 AUDIO
TITLE "每天想你一遍"
PERFORMER "林志炫"
INDEX 01 09:12:50
TRACK 04 AUDIO
TITLE "相爱的最后一天"
PERFORMER "林志炫"
INDEX 00 13:21:47
INDEX 01 13:21:57
TRACK 05 AUDIO
TITLE "给你一些不给一些"
PERFORMER "林志炫"
INDEX 00 18:13:23
INDEX 01 18:13:30
TRACK 06 AUDIO
TITLE "有些女人不能碰"
PERFORMER "林志炫"
INDEX 01 22:07:27
TRACK 07 AUDIO
TITLE "蒙娜丽莎的眼泪"
PERFORMER "林志炫"
INDEX 00 27:09:14
INDEX 01 27:09:37
TRACK 08 AUDIO
TITLE "现在我这么想"
PERFORMER "林志炫"
INDEX 00 31:37:19
INDEX 01 31:37:35
TRACK 09 AUDIO
TITLE "放手"
PERFORMER "林志炫"
INDEX 00 35:15:01
INDEX 01 35:15:35
TRACK 10 AUDIO
TITLE "懂事"
PERFORMER "林志炫"
INDEX 00 39:39:15
INDEX 01 39:39:32
TRACK 11 AUDIO
TITLE "认错"
PERFORMER "林志炫"
INDEX 00 44:25:24
INDEX 01 44:25:27
TRACK 12 AUDIO
TITLE "句点"
PERFORMER "林志炫"
INDEX 00 49:03:09
INDEX 01 49:03:32

PERFORMER "林志炫"
TITLE "單身情歌Live精選2-林志炫"
FILE "單身情歌Live精選2-林志炫.ape" WAVE
TRACK 01 AUDIO
TITLE "Open You Eyes"
PERFORMER "林志炫"
INDEX 01 00:00:00
TRACK 02 AUDIO
TITLE "我也不想这样"
PERFORMER "林志炫"
INDEX 00 03:08:12
INDEX 01 03:08:65
TRACK 03 AUDIO
TITLE "怎么办"
PERFORMER "林志炫"
INDEX 00 06:05:43
INDEX 01 06:13:35
TRACK 04 AUDIO
TITLE "征服"
PERFORMER "林志炫"
INDEX 00 09:45:01
INDEX 01 09:45:27
TRACK 05 AUDIO
TITLE "Miss Mama"
PERFORMER "林志炫"
INDEX 00 13:19:23
INDEX 01 13:19:25
TRACK 06 AUDIO
TITLE "More Than Words"
PERFORMER "林志炫"
INDEX 00 17:04:53
INDEX 01 17:04:67
TRACK 07 AUDIO
TITLE "Love Will Keep Us Alive"
PERFORMER "林志炫"
INDEX 00 22:01:06
INDEX 01 22:01:27
谢谢楼上的cue,呵呵
好好好!!!多谢楼上上睇cue
非常喜欢这张专辑,儿时童年中也是伴随着他的歌声长大的,谢谢能提供这么好的音乐。
但一直没忘记林志炫之前还是跟李骥组合的优客李林团体,那时候也是会比较早以前的事情了,有点可惜。
没记错的话应该就是从那首《认错》开始喜欢这组合,就像今天过了十几年后再来回味,找回当初的一种感觉。
说道林志炫很多人都晓得,主唱也是他,但后来优客李林组合解散后很多人已经记不起或认不出当时80年代曾经有
过这么一个组合。
不错