理查·施特劳斯 Richard Strauss -《小提琴协奏曲,双簧管协奏曲,二重协奏曲》(Violin,Oboe,Clarinet & Bassoon Concertos)Rso Berlin,Ashkenazy,LONDON[APE]

理查·施特劳斯 Richard Strauss -《小提琴协奏曲,双簧管协奏曲,二重协奏曲》(Violin,Oboe,Clarinet & Bassoon Concertos)Rso Berlin,Ashkenazy,LONDON[APE]
  • 片  名  理查·施特劳斯 Richard Strauss -《小提琴协奏曲,双簧管协奏曲,二重协奏曲》(Violin,Oboe,Clarinet & Bassoon Concertos)Rso Berlin,Ashkenazy,LONDON[APE]
  • 简  介  发行时间: 1993年
  • 类  别  音乐
  • 小  类  古典音乐


  • 详细介绍专辑英文名: Violin,Oboe,Clarinet Bassoon Concertos专辑中文名: 小提琴协奏曲,双簧管协奏曲,二重协奏曲艺术家: 理查·施特劳斯 Richard Strauss资源格式: APE版本: Rso Berlin,Ashkenazy,LONDON发行时间: 1993年地区: 英国简介:
    作曲:理查·施特劳斯 Richard Strauss
    演奏:Rso Berlin,Ashkenazy
    发行公司:LONDON
    cd编号:D 101698
    资源出处:Emule搜索,birobiro原发
    专辑介绍:
    《D小调小提琴协奏曲》(作品8)
    理查·施特劳斯青年时代的作品。他八岁开始跟父亲所在管弦乐团的首席小提琴手本诺·瓦尔特学习小提琴,后又参加过乐队演奏,获得演奏小提琴与乐队的实践经验。十七岁在中学读书时,便在数学练习本上构思此曲,第二年完成,年底在维也纳初演,受著名评论家汉斯利克赞赏,认为体现了青年作曲家“非凡的才能”。
    乐曲遵循古典协奏曲的传统,由三个乐章组成,题赠给老师瓦尔特,第一乐章采用奏鸣曲式,规模较大。管弦乐奏出悲剧性的主部主题,节奏稳健,气势豪壮。接着,独奏小提琴以双音上行进入,引向富于表情的连接部和生动明快的副部。整个呈示部顺理成章,一气呵成,塑造了丰富的音乐形象,而展开部仅由小提琴作装饰性演奏,显得十分短小。华彩段之后进入再现部,稍加变化,宏伟的乐队全奏用乐章开始的悲剧气氛结束。
    优美舒展的第二乐章充分发挥了小提琴歌唱性的特点,具有青春的活力和浪漫气质。在木管乐器谐美的和声背景上,独奏小提琴奏出如歌的旋律。中间部分转到大调,伴奏音型活跃,音乐热情明朗,达到高潮后再现如歌的第一主题,然后缓缓消失。
    第三乐章是一首快速的回旋曲,独奏小提琴奏起轻快的主题,弦乐拨奏加以衬托,它反复出现,是乐章的基本形象。其间出现如歌的第一插部和引用第一乐章音调的第二插部与之形成对比。整个第三乐章中,独奏小提琴的演奏技巧得到充分发挥,最后华丽辉煌地结束。
    《单簧管与大管二重协奏曲》
    理查·施特劳斯83岁时的作品。理查·施特劳斯是近代最有成就的作曲家之一,他的音乐作品种类繁多,大气磅礴,具有很强的震撼力。但在《单簧管与大管二重协奏曲》中,所要表现的却是另一番景象。 《单簧管与大管二重协奏曲》是理查·施特劳斯根据童话《美女与野兽》创作的,是理查·施特劳斯经过多年的酝酿才落笔完成的。这也是理查·施特劳斯自1943年重新开始创作后的最后一批音乐作品,可谓是作曲家的收山之作。 在乐曲中,单簧管与小提琴代表公主;大管与大提琴代表王子。这种结构形式有时是独立的,有时是合作进行的。整部作品主题鲜明,意境甜美、深远。 2003年10月11日晚,中国交响乐团在国图音乐厅的音乐会上就演出了这部木管二重协奏曲。单簧管独奏是尹波,大管独奏由王晓柯担任,李心草执棒。 乐曲从小提琴声部引出,单簧管平稳地进入,然后是大管。在乐曲中,美女与狗熊不断地对话与倾诉,独奏小提琴与独奏大提琴的加盟丰富了音乐所要表现的情感与色彩。乐队首席刘云克与大提琴首席沈和群的艺术表现力相当好,在整部乐曲中担任主要角色的尹波和王晓柯的演奏也十分到位。尽管是美女与野兽的对话,但整部音乐所表现的是人们向往光明美好的情感。理查·施特劳斯以极其优美的笔触歌颂了这一切,这是一位老艺术家美好心愿的展示,也是老艺术家向往光明美好的最后冲刺。理查·施特劳斯曾在他写给罗曼·罗兰的信中写道:“我再也不能忍受现实中的悲剧了,
  • 理查·施特劳斯 Richard Strauss -《小提琴协奏曲,双簧管协奏曲,二重协奏曲》(Violin,Oboe,Clarinet & Bassoon Concertos)Rso Berlin,Ashkenazy,LONDON[APE]_large

精选评论

喜欢理查·施特劳斯的音乐,当然有和听得很少,就更感谢楼主了。
还从未听过理查·施特劳斯的小协,感谢楼主带来的音乐大餐!
不客气了啊
感谢楼主,十分感谢
PERFORMER "Ashkenazy"
TITLE "Richard Strauss - Violin,Oboe,Clarinet & Bassoon Concertos - RSO Berlin"
FILE "01 - Violinkonzert d-moll op. 8 - I; Allegro.ape" WAVE
TRACK 01 AUDIO
TITLE "01 - Violinkonzert d-moll op. 8 - I; Allegro"
PERFORMER "Ashkenazy"
INDEX 01 00:00:00
FILE "02 - Violinkonzert d-moll op. 8 - II; Lento ma non troppo.ape" WAVE
TRACK 02 AUDIO
TITLE "02 - Violinkonzert d-moll op. 8 - II; Lento ma non troppo"
PERFORMER "Ashkenazy"
INDEX 01 00:00:00
FILE "03 - Violinkonzert d-moll op. 8 - III; Rondo; Presto.ape" WAVE
TRACK 03 AUDIO
TITLE "03 - Violinkonzert d-moll op. 8 - III; Rondo; Presto"
PERFORMER "Ashkenazy"
INDEX 01 00:00:00
FILE "04 - Oboenkonzert AV 144 - I; Allegro moderato.ape" WAVE
TRACK 04 AUDIO
TITLE "04 - Oboenkonzert AV 144 - I; Allegro moderato"
PERFORMER "Ashkenazy"
INDEX 01 00:00:00
FILE "05 - Oboenkonzert AV 144 - II; Andante.ape" WAVE
TRACK 05 AUDIO
TITLE "05 - Oboenkonzert AV 144 - II; Andante"
PERFORMER "Ashkenazy"
INDEX 01 00:00:00
FILE "06 - Oboenkonzert AV 144 - III; Vivace-Allegro.ape" WAVE
TRACK 06 AUDIO
TITLE "06 - Oboenkonzert AV 144 - III; Vivace-Allegro"
PERFORMER "Ashkenazy"
INDEX 01 00:00:00
FILE "07 - Duett-Concertino AV 147 - I; Allegro moderato.ape" WAVE
TRACK 07 AUDIO
TITLE "07 - Duett-Concertino AV 147 - I; Allegro moderato"
PERFORMER "Ashkenazy"
INDEX 01 00:00:00
FILE "08 - Duett-Concertino AV 147 - II; Andante.ape" WAVE
TRACK 08 AUDIO
TITLE "08 - Duett-Concertino AV 147 - II; Andante"
PERFORMER "Ashkenazy"
INDEX 01 00:00:00
FILE "09 - Duett-Concertino AV 147 - III; Rondo. Presto.ape" WAVE
TRACK 09 AUDIO
TITLE "09 - Duett-Concertino AV 147 - III; Rondo. Presto"
PERFORMER "Ashkenazy"
INDEX 01 00:00:00
谢谢ls啊
请问LZ 我也有很多好的音乐资源,想和大家分享。怎样才能发贴到主页上让大家下载呢?请详解 ,不胜感
谢谢楼主!
理查·施特勞斯 Richard Strauss -
《小提琴協奏曲,雙簧管協奏曲,二重協奏曲》
(Violin,Oboe,Clarinet & Bassoon Concertos)
Rso Berlin,Ashkenazy,LONDON  [APE]