许志安 -《大风吹(新歌+精选)》[APE]

许志安 -《大风吹(新歌+精选)》[APE]
  • 片  名  许志安 -《大风吹(新歌+精选)》[APE]
  • 简  介  音乐风格: 流行发行时间: 2005年11月16日地区: 香港语言: 粤语
  • 类  别  音乐
  • 小  类  华语音乐


  • 详细介绍简介: 专辑介绍:
    许志安近三个月来忙於台湾及青岛两地拍摄合剧《深情密码》,然而他没有忘记香港的乐迷,带来新曲「大风吹」和「水晶灯」两首新歌,并精选30首作品辑录於《大风吹》广东新歌加精选合辑内。
    「大风吹」由黄伟文填词,舒文监制,以儿时的游戏为题,安仔唱尽人生成长的历程。碟内还有很多伴侣我们成长的安仔精选歌曲,包括︰「第一回合」、「与神对话」、「苦中作乐」、「爱妳」、「我的天我的歌」、「烂泥」等多首经典作品,另有不少合唱歌如与梅艳芳合唱的「女人之苦」及与叶德嫻的一曲「美中不足」。
    更换链接为单独文件,原压缩包继续供源至无请求.
    分享团队:91TING.COM音乐社区- Albert
  • 许志安 -《大风吹(新歌+精选)》[APE]_large

精选评论

Exact Audio Copy V0.99 prebeta 5 from 4. May 2009

EAC extraction logfile from 9. November 2009, 15:20

癙в / 約狥穝簈弘匡 Disc 1

Used drive : TSSTcorpCD/DVDW SH-S183L Adapter: 1 ID: 1

Read mode : Secure
Utilize accurate stream : Yes
Defeat audio cache : No
Make use of C2 pointers : Yes

Combined read/write offset correction : 0
Overread into Lead-In and Lead-Out : No
Fill up missing offset samples with silence : Yes
Delete leading and trailing silent blocks : No
Null samples used in CRC calculations : No
Used interface : Native Win32 interface for Win NT & 2000

Used output format : Monkey's Audio Lossless Encoder v3.99 DLL
Sample format : Normal Lossless Compression


TOC of the extracted CD

Track | Start | Length | Start sector | End sector
---------------------------------------------------------
1 | 0:00.00 | 4:25.12 | 0 | 19886
2 | 4:25.12 | 3:15.46 | 19887 | 34557
3 | 7:40.58 | 4:14.56 | 34558 | 53663
4 | 11:55.39 | 3:25.09 | 53664 | 69047
5 | 15:20.48 | 3:52.11 | 69048 | 86458
6 | 19:12.59 | 4:09.42 | 86459 | 105175
7 | 23:22.26 | 3:51.15 | 105176 | 122515
8 | 27:13.41 | 2:23.52 | 122516 | 133292
9 | 29:37.18 | 3:45.58 | 133293 | 150225
10 | 33:23.01 | 3:22.63 | 150226 | 165438
11 | 36:45.64 | 3:37.67 | 165439 | 181780
12 | 40:23.56 | 3:29.43 | 181781 | 197498
13 | 43:53.24 | 3:20.28 | 197499 | 212526
14 | 47:13.52 | 3:27.60 | 212527 | 228111
15 | 50:41.37 | 3:10.36 | 228112 | 242397


Range status and errors

Selected range

Filename F:Song Wav癙в - 約狥穝簈弘匡 Disc 1.ape

Peak level 97.7 %
Range quality 100.0 %
Copy CRC 9F7E0189
Copy OK

No errors occurred

End of status report
PERFORMER "癙в"
TITLE "大風吹 - 廣東新歌+精選三十首CD1"
REM GENRE Pop
REM DATE 2005
REM DISCID BF0C9F0F
REM COMMENT "ExactAudioCopy v0.99pb5"
FILE "许志安.-.[大风吹新歌.精选CD1].专辑.(APE).ape" WAVE
TRACK 01 AUDIO
TITLE "大風吹"
PERFORMER "許志安"
REM GENRE Pop
REM DATE 2005
INDEX 01 00:00:00
TRACK 02 AUDIO
TITLE "大風吹"
PERFORMER "許志安"
REM GENRE Pop
REM DATE 2005
INDEX 00 04:23:11
INDEX 01 04:25:12
TRACK 03 AUDIO
TITLE "吻下留人"
PERFORMER "許志安"
REM GENRE Pop
REM DATE 2005
INDEX 00 07:38:59
INDEX 01 07:40:58
TRACK 04 AUDIO
TITLE "第一回合"
PERFORMER "許志安"
REM GENRE Pop
REM DATE 2005
INDEX 00 11:53:40
INDEX 01 11:55:39
TRACK 05 AUDIO
TITLE "講也不要講"
PERFORMER "許志安"
REM GENRE Pop
REM DATE 2005
INDEX 00 15:18:51
INDEX 01 15:20:48
TRACK 06 AUDIO
TITLE "與神對話"
PERFORMER "許志安"
REM GENRE Pop
REM DATE 2005
INDEX 00 19:10:60
INDEX 01 19:12:59
TRACK 07 AUDIO
TITLE "美中不足"
PERFORMER "許志安"
REM GENRE Pop
REM DATE 2005
INDEX 00 23:20:40
INDEX 01 23:22:26
TRACK 08 AUDIO
TITLE "學行"
PERFORMER "許志安"
REM GENRE Pop
REM DATE 2005
INDEX 00 27:11:44
INDEX 01 27:13:41
TRACK 09 AUDIO
TITLE "今年沒聖誕"
PERFORMER "許志安"
REM GENRE Pop
REM DATE 2005
INDEX 00 29:35:28
INDEX 01 29:37:18
TRACK 10 AUDIO
TITLE "明天請早"
PERFORMER "許志安"
REM GENRE Pop
REM DATE 2005
INDEX 00 33:21:16
INDEX 01 33:23:01
TRACK 11 AUDIO
TITLE "大男人"
PERFORMER "許志安"
REM GENRE Pop
REM DATE 2005
INDEX 00 36:43:71
INDEX 01 36:45:64
TRACK 12 AUDIO
TITLE "一步一生"
PERFORMER "許志安"
REM GENRE Pop
REM DATE 2005
INDEX 00 40:21:62
INDEX 01 40:23:56
TRACK 13 AUDIO
TITLE "安哥之歌"
PERFORMER "許志安"
REM GENRE Pop
REM DATE 2005
INDEX 00 43:51:40
INDEX 01 43:53:24
TRACK 14 AUDIO
TITLE "窮爸爸"
PERFORMER "許志安"
REM GENRE Pop
REM DATE 2005
INDEX 00 47:11:58
INDEX 01 47:13:52
TRACK 15 AUDIO
TITLE "苦中作樂"
PERFORMER "許志安"
REM GENRE Pop
REM DATE 2005
INDEX 00 50:39:50
INDEX 01 50:41:37
安哥的歌...好听~~
锺意~~~~~~~thanks~~~~~~
什么时候把《自导自传》的无损也发上来吖~~~~多谢了!
很少听他的歌,有精选,收藏了!
哦,大风吹,我还以为是翻唱刘邦的大风歌的香港版呢?
楼猪有《相信爱情(为什么你背着我爱别人)》无损吗?
超喜欢呢张精选`~
今年没圣诞~~~我今年没圣诞
支持是一定的,可是没有源啊~~
许志安...大风吹...许慧欣...不错~都姓许~~
郁闷,什么时候能够下完啊,给个RF的地址来吧LZ
好好好,真好