Allegri 阿雷格里 -《求主垂怜》(Miserere)Peter Phillips, The Tallis Scholars[APE]

Allegri 阿雷格里 -《求主垂怜》(Miserere)Peter Phillips, The Tallis Scholars[APE]
  • 片  名  Allegri 阿雷格里 -《求主垂怜》(Miserere)Peter Phillips, The Tallis Scholars[APE]
  • 简  介  发行时间: 1990年
  • 类  别  音乐
  • 小  类  古典音乐


  • 详细介绍专辑英文名: Miserere专辑中文名: 求主垂怜艺术家: Allegri 阿雷格里资源格式: APE版本: Peter Phillips, The Tallis Scholars发行时间: 1990年地区: 英国语言: 英语简介:
    专辑介绍:
    ALLEGRI MISERERE 传世不朽的经典名盘
      每个人都需要一份信仰,来寄托心中对人生的迷茫……
      我的信仰,是推动着人类进行永不疲劳的,永无止尽前进着的动力——欲望,欲望的运动轨迹……她是如此的宏大而无可琢磨,不知疲倦的驱动着生物繁衍出美丽与险恶并存的灵动世界。包括我们的人生遭遇,我们的一言一行,无不在她的轨迹下产生着、每时每刻每分每秒的变化着……
      这张CD 是1980年所录制的,1990由 Gimell 公司发行,分成三部分,第一部份曲目就是著名的《求主垂怜曲》(Miserere),第二部分曲目是由英国作曲家 William Mundy 所作的清唱剧《天父的声音》(Vox Patris caelestis),而第三部分是著名的帕莱斯特里纳 (Palestrina)的《马采鲁斯教皇弥撒》(Missa Papae Marcelli)。
      这是一张传世不朽的经典名盘,一张所有乐迷都必备的荒岛唱片!塔利斯学者合唱团以最严谨的研究态度、最深刻的诠释风格,让阿雷格利的名曲《求主垂怜曲》有了直达天听的艺术价值。曲目还包括慕迪的《天父的声音》与帕莱斯特里纳的《马采鲁斯教皇弥撒》,记录了文艺复兴时期的最伟大宗教音乐。再多的赞美也无法形容我们听过塔利斯学者合唱团这张录音的优点,不仅在于他们的完美演唱,还包括牛津梅顿学院礼拜堂的绝佳音响效果、制作人 Steve C. Smith、录音师 Bob Auger、指挥家彼得·菲利浦,都让这1980年录音呈现最顶级的水准。而著名工程师 Ben Turner 的母带数位处理,重现名盘的真正价值。Gimell唱片公司于2001年的再版,您再也不容错过!
      《主啊,怜悯我》(Miserere)
      17世纪意大利人格雷戈里奥·阿雷格里 (Gregorio Allegri, 1582-1652)为《旧约》诗篇第51首所谱的合唱曲 Miserere mei, Deus (怜悯我吧,神啊)。如果要举出人声演唱的音乐最具感染力的作品,我首先想到的就会是这首复调合唱曲。
      这首乐曲全用人声,没有任何乐器伴奏,由一远一近两个合唱队演唱,分五个声部,加上四位独唱,一共九声部。这九个声部此起彼伏,交织错落,在宽阔深厚的背景上,又有飘逸的高音似乎毫不费力地渐升渐高,直升到一个极高的C音,就好象一片亮光,由平静的海面升上去,一直升到云端,升到天上,直带我们的心灵进入天国之门。难怪门德尔松1831年在梵蒂冈听完这首乐曲后说,听过此曲的人“都认为这不像是人声,而像空中天使的声音,是任何别的地方都不可能听到的声音。”这九部互相交错的声音又各守其位,严格遵从精确对位的原则,其整体效果是一种完美的和谐,虽然有独唱的高音,却绝不使人觉得有某一声部格外突出。到乐曲最后部分,九个声部合为一体,达到圆满纯净的统一。其实这首合唱曲使人印象深刻的,固然是那飘逸的高音 (soprano),却也有那深厚的低音 (bass),用叙述般平缓乃至单调的旋律,唱出赞美诗的乐句。这种平缓的唱法 (chant)是欧洲中世纪以来宗教音乐的传统,而在文艺复兴时代变得更为复杂纯熟。15世纪时,梵蒂冈建立起专职的教皇合唱团,凡遇宗教节日和举行重要仪式,都在著名的西斯廷教堂 (Cappella Sistina)演唱。阿雷格里就是教皇合唱团成员,他从小喜爱音乐,参加合唱,曾跟佐凡尼·纳尼诺 (Giovanni Maria Nanino)学作曲,其作品可见出纳尼诺的影响,更有纳尼诺的老师、著名音乐家
  • Allegri 阿雷格里 -《求主垂怜》(Miserere)Peter Phillips, The Tallis Scholars[APE]_large

精选评论

真正天籁之音! 万念俱息,惟有信仰!
miserere在我听过的所有合唱曲中,无出其右!
无法言表
回二楼Taverner 的作品不比这差, VC上有一片,同是Peter Philips 指挥Tallis的,我更喜欢Taverner的多一点

个人认为合唱作品中Handel 的《Messiah》是最好的,不过许多版本我都不满意,Pinock和Gardiner的不错。( 听过几次现场版的算很满意 )
Taverner的是08年平安夜发的资源...

《Messiah》的风格跟这些不太一样,Tallis唱的多数是文艺复兴时期的作品,《Messiah》是Baroque的。它融合了当时德国严谨的对位法、意大利的独唱艺术和英国的合唱传统于一炉,成为世界音乐史上的瑰宝。
一直没速度,楼主拜托给源啊! 谢谢了。
总算下完了,太美了,最美的和声,天堂的声音,感动中。
谢谢楼主的分享和各位大虾的分流。
喜欢荒岛唱片!感谢楼主!
请求楼主持续供源!
回四楼,比这差

另外,亨德尔的弥赛亚不是纯合唱作品,里面有很多独唱,还有器乐伴奏

我仅仅在纯合唱作品里讨论
太好听了。。。远离了尘世的喧嚣。。。
边看福星高照的贝里公爵(Les très riches heures du Duc de Berry)一幅幅画面边听的,相距200年的音乐
REM GENRE Peter Phillips, The Tallis Scholars
REM DISCID 62101507
REM COMMENT ExactAudioCopy v0.95b3
PERFORMER "Allegri etc"
TITLE "Miserere 求主怜悯"
FILE "Unknown Artist - Unknown Title.ape" WAVE
TRACK 01 AUDIO
TITLE "Miserere mei Deus"
FLAGS PRE
INDEX 01 00:00:00
TRACK 02 AUDIO
TITLE "Vox Patris caelestis"
FLAGS PRE
INDEX 00 12:35:38
INDEX 01 12:35:40
TRACK 03 AUDIO
TITLE "Kyrie"
FLAGS PRE
INDEX 00 31:54:72
INDEX 01 31:54:73
TRACK 04 AUDIO
TITLE "Gloria"
FLAGS PRE
INDEX 00 36:44:06
INDEX 01 36:44:08
TRACK 05 AUDIO
TITLE "Credo"
FLAGS PRE
INDEX 00 43:00:03
INDEX 01 43:00:05
TRACK 06 AUDIO
TITLE "Sanctus et Benedictus"
FLAGS PRE
INDEX 01 52:54:38
TRACK 07 AUDIO
TITLE "Agnus Dei I & II "
FLAGS PRE
INDEX 00 60:32:56
INDEX 01 60:32:58