Gregorian -《Masters of Chant》[APE]

Gregorian -《Masters of Chant》[APE]
  • 片  名  Gregorian -《Masters of Chant》[APE]
  • 简  介  音乐风格: 世界发行时间: 1999年地区: 德国语言: 英语
  • 类  别  音乐
  • 小  类  欧美音乐


  • 详细介绍简介: 专辑介绍:
    来自英伦岛屿的 Gregorian 格林高利合唱团(又称“教皇合唱团”或“上帝之声”),由Frank Peterson在2000年前后精心筹划。Frank Peterson曾是Enigma的一员,知名作品有很多:如Enigma的《Sadeness》和《Principles Of Lust》,Sarah Brightman的《Time to Say Goodbye》等等。正因如此,我们常常可以在他们的作品中听到与Enigma如出一辙的配器和编曲,而Sarah Brightman更是数次在作品中献声,为专辑平添几分光彩。
      组成 Gregorian 格林高利合唱团的12位成员都是浸淫于教堂音乐与和声风格,拥有深厚古典基础,并在英国伦敦乐界有一定地位的演唱家。他们一同用传承600年的古典美声,演绎世纪脍炙人口的西洋流行歌曲,以天籁般的优美和声演绎流行音乐,别有滋味。他们的作品曾在全球34个国家发行、在7个国家创下前10名的成绩,获得1张白金及7张金唱片的殊荣。几乎使得格林高利的圣音传遍全世界,全球几百万销售业绩的理想终于成为了现实!
      他们的专辑据说全都是在大教堂中完成录音,加之成员都有参加教会唱诗班的经历,用那些古典美声的唱腔演绎出一首首美妙动听的歌曲,曲中隐隐飘出一丝庄重圣洁的味道,音域宽广回荡,令人不得不静下心来停下忙碌的脚步仔细聆听,使人仿佛和上帝很接近似的……
      在此有必要介绍一下所谓的 Gregorian Chant 格林高利圣歌 。这是在罗马天主教会的正式礼拜仪式中所唱的圣歌,起源于中世纪的罗马天主教会。当时有位教宗叫格林高利一世(Gregorius Magnus,任职期间公元590~604),他曾将这些圣歌编辑成册,因此后世人称其为“格林高利圣歌”。Gregorian Chant具有以下特征:歌词全是拉丁文,是无伴奏、无和声的单一旋律线,节奏非常自由,采用不同于“大小调系统”的调式音阶,同时还具有客观的、非个人的与超世俗的性质。这种圣歌音乐与礼拜仪式密不可分,它们可算是“功能性的音乐”,亦即具有特殊功用的音乐,不具娱乐价值。它们主要旨在表达歌词的宗教内涵,而不注重官能美感或情感诉求。但有趣的是,中世纪许多俗乐与民谣却改编自格林高利圣歌的曲调。
      圣乐对中世纪的欧洲人而言,与日常生活息息相关。当时,社区的每一份子都必须参加宗教聚会,并在聚会中唱圣歌。天主教的主要礼拜仪式有两种:“弥撒”与“日课经文”,格林高利圣歌就是应用在这两种天主教的礼仪歌曲。例如,弥撒常用部分的歌曲包括《垂怜曲》或《慈悲经》、《光荣颂》或《荣耀经》、《信经》、《欢呼歌》或《圣哉经》、《羔羊赞》,在中世纪时都是用格林高利圣歌来吟唱。因此一般民众对于格林高利圣歌的熟悉程度就如同今日一般民众对于本地流行歌曲的熟悉程度。
      Gregorian Chant 格林高利圣歌只用人声,没有和声和对位,旋律简单,不用变化音和装饰音,音域也很窄,一般不超过八度。虽然它的旋律没有明显的节奏重音,速度徐缓,但较好地配合了拉丁文歌词的抑扬顿挫。Gregorian Chant 在产生、发展过程中,吸收了古希腊、希伯莱、叙利亚和巴勒斯坦地区的音乐,因此,它使我们了解了已失传的古代地中海地区的音乐文化。同音,Gregorian Chant 也孕育了西方一千多年来的音乐艺术。Gregorian Chant以极简单、极低沉的管风琴为背景(或完全无背景音乐),压抑的男声如潮水般连绵起伏,时而徘徊于幽沉的低音部,时而又突然攀升至难以想象的高音区,音域跨度之大和对人声要求之高,是其它Early Music所不能比拟
  • Gregorian -《Masters of Chant》[APE]_large

精选评论

能有mp3版本就好了.......楼主能够提供吧,万分感谢哦
找了好久,终于找到了
楼主太粗心了这是Masters Of Chant Chapter II…… 不过还是谢谢!
先下载一张听听
Masters Of Chant Chapter I里面有一首voyage voyage印象中不错的~
这张专辑是
MASTERS.OF.CHANT.CHAPTER.II
1.Voyage,Voyage
2.River
3.Moment of Peace
4.The first time ever I saw your face
5.In the air tonight
6.Bonny portmore
7.Hymn
8.Child in time
9.Everybody gotta learn sometimes
10.Wish you were here <
我用foobar播放第2首歌River的时候会提示invalid checksum,然后会有几秒钟的声音不见了。不知道大家有没有这个问题?也不知道是文件的问题还是我播放器设置的问题?望指教
这也不是德国美声吧,教皇合唱团不是英国的吗
PERFORMER "Gregorian"
TITLE "MASTERS.OF.CHANT.CHAPTER.II"
FILE "CDImage.ape" WAVE
TRACK 01 AUDIO
TITLE "Voyage Voyage"
PERFORMER "Gregorian"
INDEX 01 00:00:00
TRACK 02 AUDIO
TITLE "River"
PERFORMER "Gregorian"
INDEX 00 04:02:12
INDEX 01 04:03:19
TRACK 03 AUDIO
TITLE "Instant De Paix (Moment Of Peace)"
PERFORMER "Gregorian"
INDEX 01 09:03:23
INDEX 02 12:58:35
TRACK 04 AUDIO
TITLE "The First Time Ever I Saw Your Face"
PERFORMER "Gregorian"
INDEX 01 13:25:29
INDEX 02 18:23:03
TRACK 05 AUDIO
TITLE "In The Air Tonight"
PERFORMER "Gregorian"
INDEX 01 19:24:62
INDEX 02 24:03:43
TRACK 06 AUDIO
TITLE "Bonny Portmore"
PERFORMER "Gregorian"
INDEX 01 25:09:72
INDEX 02 28:48:53
TRACK 07 AUDIO
TITLE "Hymn"
PERFORMER "Gregorian"
INDEX 01 30:12:18
INDEX 02 35:12:26
TRACK 08 AUDIO
TITLE "Child In Time"
PERFORMER "Gregorian"
INDEX 01 36:18:66
INDEX 02 40:33:35
TRACK 09 AUDIO
TITLE "Everybody Gotta Learn Sometimes"
PERFORMER "Gregorian"
INDEX 01 41:38:72
INDEX 02 46:25:37
TRACK 10 AUDIO
TITLE "Wish You Were Here"
PERFORMER "Gregorian"
INDEX 01 46:57:44
INDEX 02 51:20:36
TRACK 11 AUDIO
TITLE "Lady D'Arbanville"
PERFORMER "Gregorian"
INDEX 01 52:29:57
INDEX 02 56:10:24
TRACK 12 AUDIO
TITLE "Heaven Can Wait"
PERFORMER "Gregorian"
INDEX 01 57:15:64
INDEX 02 62:20:07
TRACK 13 AUDIO
TITLE "Babylon"
PERFORMER "Gregorian"
INDEX 01 63:08:40
TRACK 14 AUDIO
TITLE "Stairway To Heaven"
PERFORMER "Gregorian"
INDEX 01 66:13:35


这个才是这个ape的正确的cue revised by Paul
Thanks.
大侠,这是英国的乐团