东方神起(동방신기) -《Vol.4-MiroTic》专辑[APE]

东方神起(동방신기) -《Vol.4-MiroTic》专辑[APE]
  • 片  名  东方神起(동방신기) -《Vol.4-MiroTic》专辑[APE]
  • 简  介  Douban3225847:8.9(1622 votes)音乐风格: 流行发行时间: 2008年9月26日地区: 韩国语言: 朝鲜语
  • 类  别  音乐
  • 小  类  日韩音乐


  • 详细介绍简介:

    专辑介绍:
    PS:外包装被我爸偷偷的当废品处理了汗...
    专辑介绍:
    将在9月24日发售的东方神起最新专辑的主打歌《咒语MIROTIC》将于9月19日通过音乐网站提前公开。《咒语MIROTIC》是由Boa的美国出道单曲《Eat You Up》作曲团队专门为东方神起量身定做的歌曲,歌名中的MIROTIC是将“迷路”的韩文发音与英文“Tic”结合在一起创作的单词,象征一见钟情后仿佛陷入永远无法走出的迷宫一般的感觉。
      
      东方神起从2007年开始就着手新专辑的准备工作,一直到今年6月才完成了新专辑的录音。《咒语MIROTIC》的舞蹈由曾与贾斯汀·汀布莱克等著名歌手合作过的著名舞蹈家Kenny Wormald设计,配合《咒语MIROTIC》动听旋律,为fans展示了一个全新的东方神起。东方神起将在24日的新专辑发售后,通过28日的SBS电视台《人气歌曲》节目正式宣告复出。
    下载完成后请各位亲自行检测音质,如有问题的话M我。
    有意的亲请加仙后群:23845795(超级群哦!)
    由于本人学校网络速度有限,请大家耐心下载,最好可以帮忙分流下。
    最后引用VC上某位亲说过的一句话:音乐是无国界的美好的东西自然会留传於世受到真正懂得欣赏及喜爱的人的追捧那些整天把仇视放在嘴里的无聊人不断地宣扬你自己所谓的爱国主义精神简直就是污染了音乐这块净土嘛想把地球人都变成**吗﹖不懂得欣赏或尊重别国的音乐及艺术根本没资格谈什么国粹音乐以及艺术!

  • 东方神起(동방신기) -《Vol.4-MiroTic》专辑[APE]_large

精选评论

Exact Audio Copy V0.99 prebeta 5 from 4. May 2009

EAC 抓取日志文件从24. 三月 2010, 9:36

未知艺术家 / 未知标题

使用驱动器 :Optiarc DVD RW AD-7700S Adapter: 0 ID: 1

读取模式 : 暴发

读取偏移校正 : 0
读取 Lead-In 和 Lead-Out : 否
用静音填充抓取中丢失偏移的采样 : 是
去除首尾静音块 : 否
在 CRC 计算中使用了空样本 : 否
已用接口 : Win NT 及 2000 本地 Win32 接口

所用输出格式 : 内部 WAV 函数
样本格式 : 44.100 Hz;16 Bit;立体声


被抓轨 CD 的 TOC

音轨 | 开始 | 长度 | 起始扇区 | 结尾扇区
--------------------------------------------------
1 | 0:00.00 | 3:28.35 | 0 | 15634
2 | 3:28.35 | 4:14.71 | 15635 | 34755
3 | 7:43.31 | 4:51.29 | 34756 | 56609
4 | 12:34.60 | 3:42.65 | 56610 | 73324
5 | 16:17.50 | 4:12.61 | 73325 | 92285
6 | 20:30.36 | 3:33.34 | 92286 | 108294
7 | 24:03.70 | 4:10.36 | 108295 | 127080
8 | 28:14.31 | 4:39.25 | 127081 | 148030
9 | 32:53.56 | 4:11.04 | 148031 | 166859
10 | 37:04.60 | 3:53.09 | 166860 | 184343
11 | 40:57.69 | 4:21.66 | 184344 | 203984
12 | 45:19.60 | 5:16.70 | 203985 | 227754


范围状态及错误

已选择范围

文件名 E:TVXQ东方神起.[Vol.4-MiroTic].专辑.(WAV).wav

计时问题 0:00:41
计时问题 0:44:48

峰值电平 100.0 %
复制 CRC C73FC869
复制结束

没有错误发生

状态报告结尾
REM DISCID AD0BDC0C
REM COMMENT "ExactAudioCopy v0.99pb5"
PERFORMER "未知艺术家"
TITLE "未知标题"
FILE "东方神起.[Vol.4-MiroTic].专辑.(APE).ape" APE
TRACK 01 AUDIO
TITLE "Track01"
PERFORMER "未知艺术家"
INDEX 01 00:00:00
TRACK 02 AUDIO
TITLE "Track02"
PERFORMER "未知艺术家"
INDEX 01 03:28:35
TRACK 03 AUDIO
TITLE "Track03"
PERFORMER "未知艺术家"
INDEX 01 07:43:31
TRACK 04 AUDIO
TITLE "Track04"
PERFORMER "未知艺术家"
INDEX 01 12:34:60
TRACK 05 AUDIO
TITLE "Track05"
PERFORMER "未知艺术家"
INDEX 01 16:17:50
TRACK 06 AUDIO
TITLE "Track06"
PERFORMER "未知艺术家"
INDEX 00 20:29:30
INDEX 01 20:30:36
TRACK 07 AUDIO
TITLE "Track07"
PERFORMER "未知艺术家"
INDEX 00 24:02:62
INDEX 01 24:03:70
TRACK 08 AUDIO
TITLE "Track08"
PERFORMER "未知艺术家"
INDEX 01 28:14:31
TRACK 09 AUDIO
TITLE "Track09"
PERFORMER "未知艺术家"
INDEX 00 32:52:25
INDEX 01 32:53:56
TRACK 10 AUDIO
TITLE "Track10"
PERFORMER "未知艺术家"
INDEX 01 37:04:60
TRACK 11 AUDIO
TITLE "Track11"
PERFORMER "未知艺术家"
INDEX 00 40:56:62
INDEX 01 40:57:69
TRACK 12 AUDIO
TITLE "Track12"
PERFORMER "未知艺术家"
INDEX 01 45:19:60
谢谢LZ!!!
谁也取代不了HOT在我心中的地位 呵呵 东方神起希望别解散咯
金在中的肌肉非常好看.!特别是三头肌.是我学习的对象.!
我还以为评论都关闭了~~
哈,经次于楼主!希望有c版的ape!希望能早日听到5辑的消息!
好想好想要咒文acapella版的ape啊~~~~这首歌的320kmp3怎么听来听去都觉得不行,杂音太多~~~~~~~~~~呼唤《咒文(acapella ver.)》的无损~~~~~~~~~~~
真是好东西,我们恰好在找这一部分了,太好了,哈哈!
呵呵,啊,太高兴了,俺是标准的无损控,神起的无损资源特别少,不过楼更新的好快啊。谢谢楼分享,俺常驻这里了,呵呵。
韩文就缺这张~~~楼主把日专3、4的无损也传了吧
没内涵
没内涵x2
居然整个不文明用语,我kao,老子骂你了?