日本SPEED -《SPEED - RISE》[FLAC]

日本SPEED -《SPEED - RISE》[FLAC]
  • 片  名  日本SPEED -《SPEED - RISE》[FLAC]
  • 简  介  音乐风格: 流行地区: 日本语言: 日语
  • 类  别  音乐
  • 小  类  日韩音乐


  • 详细介绍简介:
    听过最好的日本组合,高中时非常喜欢!抓了份进硬盘,共享下!Exact Audio Copy V0.99 prebeta 4 from 23. January 2008
    EAC 抓取日志文件从2. 十一月 2008, 3:05
    SPEED / RISE
    使用驱动器 :PLEXTOR CD-R PREMIUM2 Adapter: 2 ID: 0
    读取模式 : 保护
    使用精确流 : 否
    废除音频缓冲 : 是
    使用 C2 指针 : 否
    读取偏移校正 : 30
    读取 Lead-In 和 Lead-Out : 否
    用静音填充抓取中丢失偏移的采样 : 是
    去除首尾静音块 : 否
    在 CRC 计算中使用了空样本 : 否
    已用接口 : Win NT 及 2000 本地 Win32 接口
    间隙处理 : 未检出,故附加至前一音轨
    所用输出格式 : 内部 WAV 函数
    样本格式 : 44.100 Hz;16 Bit;立体声
    被抓轨 CD 的 TOC
    音轨 | 开始 | 长度 | 起始扇区 | 结尾扇区
    --------------------------------------------------
    1 | 0:00.37 | 1:52.52 | 37 | 8488
    2 | 1:53.14 | 4:21.53 | 8489 | 28116
    3 | 6:14.67 | 3:50.12 | 28117 | 45378
    4 | 10:05.04 | 5:30.73 | 45379 | 70201
    5 | 15:36.02 | 5:35.27 | 70202 | 95353
    6 | 21:11.29 | 4:22.03 | 95354 | 115006
    7 | 25:33.32 | 1:34.22 | 115007 | 122078
    8 | 27:07.54 | 4:39.13 | 122079 | 143016
    9 | 31:46.67 | 3:03.07 | 143017 | 156748
    10 | 34:49.74 | 4:24.70 | 156749 | 176618
    11 | 39:14.69 | 5:43.35 | 176619 | 202378
    12 | 44:58.29 | 3:58.58 | 202379 | 220286
    13 | 48:57.12 | 7:17.10 | 220287 | 253071
    音轨 1
    文件名 F:自抓轨SPEED - RISE1 RISE.wav
    峰值电平 97.7 %
    音轨质量 100.0 %
    复制 CRC 3B123541
    复制成功
    音轨 2
    文件名 F:自抓轨SPEED - RISE2 Sophisticated Girl.wav
    峰值电平 97.7 %
    音轨质量 100.0 %
    复制 CRC B138DCA5
    复制成功
    音轨 3
    文件名 F:自抓轨SPEED - RISE3 Another Sweet Field.wav
    峰值电平 97.7 %
    音轨质量 100.0 %
    复制 CRC FA7D8BD3
    复制成功
    音轨 4
    文件名 F:自抓轨SPEED - RISE4 Wake Me Up! (RISE Mix).wav
    峰值电平 97.7 %
    音轨质量 100.0 %
    复制 CRC EDBF6F40
    复制成功
    音轨 5
    文件名 F:自抓轨SPEED - RISE5 White Love.wav
    峰值电平 97.7 %
    音轨质量 100.0 %
    复制 CRC C7226062
    复制成功
    音轨 6
    文件名 F:自抓轨SPEED - RISE6 ラブリー.フレンドシップ.wav
    峰值电平 97.7 %
    音轨质量 100.0 %
    复制 CRC 78E56010
    复制成功
    音轨 7
    文件名 F:自抓轨SPEED - RISE7 Reset 99 to 00.wav
    峰值电平 97.7 %
    音轨质量 100.0 %
    复制 CRC 294C0FC9
    复制成功
    音轨 8
    文件名 F:自抓轨SPEED - RISE8 Brand-New Weekend (Varick Street Mix).wav
    峰值电平 97.7 %
    音轨质量 100.0 %
    复制 CRC 9DC759EC
    复制成功
    音轨 9
    文件名 F:自抓轨SPEED - RISE9 热帯夜.wav
    峰值电平 97.7 %
    音轨质量 100.0 %
    复制 CRC 87DFCDEE
    复制成功
    音轨 10
    文件名 F:自抓轨SPEED - RISE10 Too Young.wav
    峰值电平 97.7 %
    音轨质量 100.0 %
    复制 CRC CB6296A5
    复制成功
    音轨 11
    文件名 F:自抓轨SPEED - RISE11 my graduation (Album Version).wav
    峰值电平 97.7 %
    音轨质量 100.0 %
    复制 CRC C5E7F49C
    复制成功
    音轨 12
    文件名 F:自抓轨SPEED - RISE12 I'll Be All Right.wav
    峰值电平 97.7 %
    音轨质量 100.0 %
    复制 CRC 526E5E0F
    复制成功
    音轨 13
    文件名 F:自抓轨SPEED - RISE13 Street Life.wav
    峰值电平 97.7 %
    音轨质量 100.0 %
    复制 CRC 828C07FC
    复制成功
    没有错误发生
    状态报告结尾
  • 日本SPEED -《SPEED - RISE》[FLAC]_large