Emancipator -《Soon It Will Be Cold Enough》(骤冷)[FLAC]

Emancipator -《Soon It Will Be Cold Enough》(骤冷)[FLAC]
  • 片  名  Emancipator -《Soon It Will Be Cold Enough》(骤冷)[FLAC]
  • 简  介  Douban2350635:8.7(794 votes)音乐风格: 电子发行时间: 2007年地区: 美国
  • 类  别  音乐
  • 小  类  欧美音乐


  • 详细介绍简介: 专辑介绍:
    这张专辑旋律优美而不让人腻歪,节奏成熟而不老套,甚至还会让人偶尔眼前一亮。
    简单用一句话来概括,这是一个19岁的大男孩制作的超过其年龄的优秀专辑。主人公Emancipator包办了其中的键盘、吉他、采样以及后期,而女声和提琴则出自于另外两位朋友的协助。
    毫无疑问,这张专辑背后的看点很多,不过大多是用来给媒体八卦打兴奋剂的;而音乐本身和它带来的感觉,则是对我们这些听众来说更值得关心的东西。
    关于其风格,网上有些零星的介绍,基本上是不假思索地照搬某西方作者的叙述 jazz, electronica, trip-hop and down-tempo 的混合体。其实,通盘听完,并没发现所谓jazz,trip-hop和down-tempo的影子,倒是觉得 indie+new age+electronica 更为恰当些。只是这个年轻的主人做得比前辈们巧妙很多,既不像indie的小爱小伤,也没有new age的浓妆艳抹,更避免了电子乐的冰冷。
    他对音乐的处理也不同于现在的流行风格。年轻人中,闹腾点的不允许心绪不能表达,尽量弄出些释放能量的音乐;内向型的则低头看着自己脚丫子,掰着指头妮妮喃喃说点小心思。用Emancipator自己的话来说,他的确很 老成 ,懂得过犹不及的道理,时刻闪亮着机灵劲却又保持含蓄沉稳,不温不火,像葛优一样总是让人意犹未尽。
    尽管音符和节拍在耳边跳动,但其创造的氛围确是幽静而浪漫的。就像身处大山深处的某个湖畔,安详得没有狂风暴雨,也不会烈日炎炎,只是微风中偶尔溅起几点水花,飞过一群小鸟,走来一对麋鹿,不时地眼前一亮,很快又归于平静。
    如果你正在寻找用于闲暇时的背景音乐或是临睡前的放松,这张是再适合不过了。
    [Ps: 如果你是Hi-Fi发烧友,用这张专辑来测试器材的低频解析度和弹性也是不错的。]
    预览:
    01. Eve
  • Emancipator -《Soon It Will Be Cold Enough》(骤冷)[FLAC]_large

精选评论

噢,大爱电子,谢谢分享
封面党留名
下不动:((((
试听不错,可以下载
人家十九岁就可以制作出这么一张专辑,回想我十九岁的时候在干嘛。
好乐评 好资源 赞
楼主,那个cue文件打开之后说文件不存在,有问题。
这么NB的推荐,拖走了~
TITLE "Emancipator"

PERFORMER "Emancipator"

REM GENRE "Hip Hop/Rap"

REM DATE 2008

FILE "01 Emancipator - Eve.flac" WAVE

TRACK 01 AUDIO

TITLE "Eve"

INDEX 01 00:00:00

FILE "02 Emancipator - Soon It Will Be Cold Enough To Build Fires.flac" WAVE

TRACK 02 AUDIO

TITLE "Soon It Will Be Cold Enough To Build Fires"

INDEX 01 00:00:00

FILE "03 Emancipator - First Snow.flac" WAVE

TRACK 03 AUDIO

TITLE "First Snow"

INDEX 01 00:00:00

FILE "04 Emancipator - Wolf Drawn.flac" WAVE

TRACK 04 AUDIO

TITLE "Wolf Drawn"

INDEX 01 00:00:00

FILE "05 Emancipator - Anthem.flac" WAVE

TRACK 05 AUDIO

TITLE "Anthem"

INDEX 01 00:00:00

FILE "06 Emancipator - Smoke Signals.flac" WAVE

TRACK 06 AUDIO

TITLE "Smoke Signals"

INDEX 01 00:00:00

FILE "07 Emancipator - When I Go.flac" WAVE

TRACK 07 AUDIO

TITLE "When I Go"

INDEX 01 00:00:00

FILE "08 Emancipator - Periscope Up.flac" WAVE

TRACK 08 AUDIO

TITLE "Periscope Up"

INDEX 01 00:00:00

FILE "09 Emancipator - With Rainy Eyes.flac" WAVE

TRACK 09 AUDIO

TITLE "With Rainy Eyes"

INDEX 01 00:00:00

FILE "10 Emancipator - Good Knight.flac" WAVE

TRACK 10 AUDIO

TITLE "Good Knight"

INDEX 01 00:00:00

FILE "11 Emancipator - Lionheart.flac" WAVE

TRACK 11 AUDIO

TITLE "Lionheart"

INDEX 01 00:00:00

FILE "12 Emancipator - Maps.flac" WAVE

TRACK 12 AUDIO

TITLE "Maps"

INDEX 01 00:00:00

FILE "13 Emancipator - Father King.flac" WAVE

TRACK 13 AUDIO

TITLE "Father King"

INDEX 01 00:00:00

FILE "14 Emancipator - The Darkest Evening Of The Year.flac" WAVE

TRACK 14 AUDIO

TITLE "The Darkest Evening Of The Year"

INDEX 01 00:00:00
这封面看着是爽。音乐有灵气。