Mozart 莫扎特 -《管弦乐小品集》(A Little Light Music)俗称大气球[APE]

Mozart 莫扎特 -《管弦乐小品集》(A Little Light Music)俗称大气球[APE]
  • 片  名  Mozart 莫扎特 -《管弦乐小品集》(A Little Light Music)俗称大气球[APE]
  • 简  介  发行时间: 1991年02月08日
  • 类  别  音乐
  • 小  类  古典音乐


  • 详细介绍专辑英文名: A Little Light Music专辑中文名: 管弦乐小品集艺术家: Mozart 莫扎特资源格式: APE版本: 俗称大气球发行时间: 1991年02月08日简介:
    作曲:Wolfgang Amadeus Mozart
    演出:Maureen Gallagher /David Singer/William Purvis/Steven Dibner
    乐团:ORPHEUS CHAMBER ORCHESTRA
    录音日期:1991年2月8日
    发行公司:DGG
    CD编号:429 783-2
    时间总长:1小时9分钟
    专辑介绍:
    演奏:奥菲斯室内乐团
      这张由美国著名的奥菲斯室内乐团演奏的《Mozart:A Little Light Music》收录了莫扎特一些不经常被录制的小作品。所谓“物以稀为贵”,因此即便这些曲目并不是作曲家最为杰出的创作,却依然不妨碍这张唱片本身的杰出。这些小品大多是一些小夜曲、嬉游曲、进行曲、舞曲风格的作品,虽然并没有太多深厚的内涵,却无不体现出莫扎特音乐创作理念中那种幽默、乐观甚至稍带些玩笑的轻松格调,用来给入门听众欣赏真是再合适不过。奥菲斯室内乐团的音色圆润、华丽,虽然并没有采用仿古乐器,但演奏中透出的古典气质和典雅风范丝毫不显逊色。演奏家们的技巧以及对音乐的诠释能力也是毋庸置疑的,这些小品所该表现出的轻松、自然、被最大程度地表达出来。DG公司在这张唱片中的录音也异常出色,音色透明而轻盈,丰满而不过火。
      唱片上的第一部作品K.522的中文译名是《音乐玩笑》,这部怪异的作品其实是莫扎特为纪念其父里奥波德而特别创作的。里奥波德一生都喜欢对同时代那些创作能力平庸的同行们发表尖酸刻薄的评论,他曾要求莫扎特用音乐的形式把这种嘲笑表现出来。在父亲去世后,莫扎特为了敬一份孝心从而创作了这部《音乐玩笑》。这部作品充满着不和谐,听上去甚至有些杂乱无章,实际上莫扎特正是用这种手法描绘出一个充满着喋喋不休和虚情假意的闲聊的场景,以映射讽刺那些无聊的音乐同行们。其余诸多小品也都有自己有趣的标题,只是大多数典故已经遗失,但这些作品充分体现出莫扎特天才般的创作思路以及他玩世不恭的自由个性。
    版本信息:
    1. Eine musikalischer Spass, K 522 by Wolfgang Amadeus Mozart
    Orchestra/Ensemble: Orpheus Chamber Orchestra
    Period: Classical
    Written: 1787; Vienna, Austria
    Length: 22 Minutes 2 Secs.
    2. Contradance in C major, K 587 Coburg s Victory by Wolfgang Amadeus Mozart
    Orchestra/Ensemble: Orpheus Chamber Orchestra
    Period: Classical
    Written: 1789; Vienna, Austria
    Length: 1 Minutes 38 Secs.
    3. Contradance in D major, K 534 Thunderstorm by Wolfgang Amadeus Mozart
    Orchestra/Ensemble: Orpheus Chamber Orchestra
    Period: Classical
    Written: 1788; Vienna, Austria
    Length: 0 Minutes 48 Secs.
    4. Contradance in C major, K 535 Battle by Wolfgang Amadeus Mozart
    Orchestra/Ensemble: Orpheus Chamber Orchestra
    Period: Classical
    Written: 1788; Vienna, Austria
    Length: 1 Minutes 26 Secs.
    5. German Dances (6), K 567 by Wolfgang Amadeus Mozart
    Orchestra/Ensemble: Orpheus Chamber Orchestra
    Period: Classical
    Written: 1789; Vienna, Austria
    Length: 11 Minutes 34 Secs.
    6. Galimathias musicum, K 32 by Wolfgang Amadeus Mozart
    Orchestra/Ensemble: Orpheus Chamber Orchestra
    Period: Classical
    Written: 1766; The Hague, Netherlan
    Length: 15 Minutes 58 Secs.
    7. March in D major, K 335 no 1 (320a) by Wolfgang Amadeus Mozart
    Orchestra/Ensemble: Orpheus Chamber Orchestra
    Period: Classical
    Written: 1779; Salzburg, Austria
    Length: 4 Minutes 23 Secs.
    8. Contradance in G major, K 610 Les filles malicieuses by Wolfgang Amadeus Mozart
    Orchestra/Ensemble: Orph
  • Mozart 莫扎特 -《管弦乐小品集》(A Little Light Music)俗称大气球[APE]_large

精选评论

不错不错,谢谢楼主多发好资源
谢谢分享
接下来的可能是《莫扎特:小夜曲》了吧,呵呵
不错,下之!
好東西
收了那张扇子, 气球也收了, 谢谢~
这张是精品,以前听过。
好东西
楼主发的都是精品啊,“扇子”和“气球”都是好东西。跪谢!!!
我好奇想问下楼主,"俗称扇子"和"俗称气球"是真的原CD取名如此,或是大家公认的名称,还是楼主自己创作的啊?
简单做了个CUE文件,希望对大家有益
PERFORMER "ORPHEUS CHAMBER ORCHESTRA"
TITLE "Wolfgang Amadeus Mozart A Little Light Music"
FILE "CDImage.ape" WAVE
TRACK 01 AUDIO
TITLE "Ein Musikalischer Spass, K.522 - Allegro"
PERFORMER "Mozart"
INDEX 00 00:00:00
INDEX 01 00:00:32
TRACK 02 AUDIO
TITLE "Ein Musikalischer Spass, K.522 - Menuetto (Maestoso) - Trio"
PERFORMER "Mozart"
INDEX 00 05:08:57
INDEX 01 05:10:32
TRACK 03 AUDIO
TITLE "Ein Musikalischer Spass, K.522 - Adagio Cantabile"
PERFORMER "Mozart"
INDEX 00 11:45:32
INDEX 01 11:48:07
TRACK 04 AUDIO
TITLE "Ein Musikalischer Spass, K.522 - Presto"
PERFORMER "Mozart"
INDEX 01 17:43:57
TRACK 05 AUDIO
TITLE "Contredanse In C, K.587 Der Sieg Vom Helden Koburg"
PERFORMER "Mozart"
INDEX 00 22:06:32
INDEX 01 22:11:45
TRACK 06 AUDIO
TITLE "Contredanse In D, K.534 Das Donnerwetter"
PERFORMER "Mozart"
INDEX 00 23:49:07
INDEX 01 23:51:32
TRACK 07 AUDIO
TITLE "Contredanse In C, K.535 La Bataille "
PERFORMER "Mozart"
INDEX 00 24:39:32
INDEX 01 24:41:20
TRACK 08 AUDIO
TITLE "Six German Dances, K.567 - No.1 In B Flat"
PERFORMER "Mozart"
INDEX 00 26:07:45
INDEX 01 26:10:57
TRACK 09 AUDIO
TITLE "Six German Dances, K.567 - No.2 In E Flat"
PERFORMER "Mozart"
INDEX 00 27:46:32
INDEX 01 27:47:32
TRACK 10 AUDIO
TITLE "Six German Dances, K.567 - No.3 In G "
PERFORMER "Mozart"
INDEX 00 29:33:32
INDEX 01 29:34:57
TRACK 11 AUDIO
TITLE "Six German Dances, K.567 - No.4 In D"
PERFORMER "Mozart"
INDEX 00 31:29:20
INDEX 01 31:30:62
TRACK 12 AUDIO
TITLE "Six German Dances, K.567 - No.5 In A"
PERFORMER "Mozart"
INDEX 00 33:12:07
INDEX 01 33:13:32
TRACK 13 AUDIO
TITLE "Six German Dances, K.567 - No.6 In C"
PERFORMER "Mozart"
INDEX 00 35:21:20
INDEX 01 35:22:20
TRACK 14 AUDIO
TITLE "Galimathias Musicum, K.32"
PERFORMER "Mozart"
INDEX 00 37:50:07
INDEX 01 37:57:32
INDEX 02 38:21:40
INDEX 03 39:43:32
INDEX 04 40:22:32
INDEX 05 41:31:32
INDEX 06 42:12:00
INDEX 07 43:07:02
INDEX 08 43:43:32
INDEX 09 44:19:65
INDEX 10 45:01:47
INDEX 11 45:44:12
INDEX 12 46:08:65
INDEX 13 47:10:00
INDEX 14 48:29:47
INDEX 15 49:15:32
INDEX 16 50:31:05
INDEX 17 50:57:65
TRACK 15 AUDIO
TITLE "March In D, K.335 No.1"
PERFORMER "Mozart"
INDEX 00 53:55:08
INDEX 01 53:59:07
TRACK 16 AUDIO
TITLE "Contredanse In G, K.610 Les Filles Malicieuses "
PERFORMER "Mozart"
INDEX 00 58:22:32
INDEX 01 58:24:70
TRACK 17 AUDIO
TITLE "Contredanse In E Flat, K.607 Il Trionfo Delle Donne "
PERFORMER "Mozart"
INDEX 00 59:54:57
INDEX 01 59:56:07
TRACK 18 AUDIO
TITLE "German Dance In C, K.611 Die Leyerer "
PERFORMER "Mozart"
INDEX 00 61:08:70
INDEX 01 61:10:32
TRACK 19 AUDIO
TITLE "Three German Dances, K.605 - No.1 In D"
PERFORMER "Mozart"
INDEX 00 63:04:57
INDEX 01 63:06:57
TRACK 20 AUDIO
TITLE "Three German Dances, K.605 - No.2 In G "
PERFORMER "Mozart"
INDEX 00 64:54:57
INDEX 01 64:55:32
TRACK 21 AUDIO
TITLE "Three German Dances, K.605 - No.3 In C, Trio Die Schlittenfahrt "
PERFORMER "Mozart"
INDEX 01 66:36:45
第14轨项下
“INDEX 02 38:21:40
INDEX 03 39:43:32
INDEX 04 40:22:32
INDEX 05 41:31:32
INDEX 06 42:12:00
INDEX 07 43:07:02
INDEX 08 43:43:32
INDEX 09 44:19:65
INDEX 10 45:01:47
INDEX 11 45:44:12
INDEX 12 46:08:65
INDEX 13 47:10:00
INDEX 14 48:29:47
INDEX 15 49:15:32
INDEX 16 50:31:05
INDEX 17 50:57:65”似可删除。
如此经典,不顶不是人
十分感谢楼主分享,早就想要它了。。。。