陈宁 -《那天晚上》[K2HD][APE]

陈宁 -《那天晚上》[K2HD][APE]
  • 片  名  陈宁 -《那天晚上》[K2HD][APE]
  • 简  介  音乐风格: 流行发行时间: 2009年01月10日地区: 大陆语言: 普通话
  • 类  别  音乐
  • 小  类  华语音乐


  • 详细介绍专辑中文名: 那天晚上歌手: 陈宁音乐风格: 流行资源格式: APE版本: [K2HD]发行时间: 2009年01月10日地区: 大陆语言: 普通话简介: 发行公司:靓声唱片公司
    出版公司:齐鲁电子音像出版社
    ISRC:CN-E22-08-656-00/A.J6
    专辑介绍:
    这张唱片是陈宁录下的真正意义上的一张发烧片。此碟无论高您频的延伸、
    人声和乐器的质感、口型比例音像定位、立体聚焦、动态和音色密度,
    均达到真正的发烧级水平。最重要的是,陈宁的声音在这张唱片中听起来更纯净透明了,
    音域也宽广了不少,没有其它发烧碟中那过于浓厚的鼻音,很明显,
    炮制这张《陈宁那天晚上》唱片时,唱片公司已意识到陈宁在发烧碟中的地位,
    不敢懈怠,落足了心机。此碟对发烧友最有示范价值的曲目应该是第一首
    《烟雨蒙蒙》和第九首《TIN PAN ALLEY .前者开头劲抽深沉的几下鼓击,
    HI-FI得可以让音响店的营业员多卖掉许多器材;后者以立体和通透到可以
    触摸的吉它配以娓娓的人声,任何级别音响播唱,都足以让人写个“服”晕了。
    当然,第三首《再见我的爱人》中的人声清唱,也极有说服力,细节、
    口型和空间感难得一见的好!音响之美经得起时间考验!
    K2HD 即金24BIT High Definition ——超高解析度兼容数码金碟的缩写。承载频宽高达100kHz,分析度高达192KHz 24-bit的高密度数码信息。
    2004年日本JVC公司开始在HDCD的基础上试验K2HD技术,2007年此技术已颇为成熟,研发成果开始应于制碟。2007年3月,JVC邀请FIM一听钟情唱片公司的创办人马濬先生到JVC东京总部,了解K2HD的混音制作和效果,马先生以《江河水》母带与XRCD24作参照,这两种都比不过K2HD!因而是他预见在未来的数年里,K2HD Mastering将会是发烧碟的主流。因而当即与JVC公司签订了制造15种K2HD的合约。2007年8月,世界首张一听钟情K2HD 诞生了,《THIS IS K2 HD SOUND!》
    2008年4月,已有7种K2HD碟在FIM一听钟情发行。在未来的岁月中,将有越来越多的发烧友欣喜万分的接纳K2HD的碟。
    K2HD与XRCD一样,可以在普通CD机上播放,价位比XRCD略高。

  • 陈宁 -《那天晚上》[K2HD][APE]_large

精选评论

CUE文件名: 陈宁.-.[那天晚上].专辑.(ape).cue

----------------------------------------------------------------------------


PERFORMER "陈宁"
TITLE "那天晚上"
FILE "陈宁.-.[那天晚上].专辑.(ape).ape" WAVE
TRACK 01 AUDIO
TITLE "01 烟雨蒙蒙"
PERFORMER "陈宁"
REM REPLAYGAIN_TRACK_GAIN -7.98 dB
REM REPLAYGAIN_TRACK_PEAK 0.970001
INDEX 01 00:00:00
TRACK 02 AUDIO
TITLE "02 那天晚上"
PERFORMER "陈宁"
REM REPLAYGAIN_TRACK_GAIN -5.45 dB
REM REPLAYGAIN_TRACK_PEAK 0.970001
INDEX 00 03:18:15
INDEX 01 03:20:15
TRACK 03 AUDIO
TITLE "03 再见了我的爱人"
PERFORMER "陈宁"
REM REPLAYGAIN_TRACK_GAIN -6.61 dB
REM REPLAYGAIN_TRACK_PEAK 0.970001
INDEX 00 06:12:41
INDEX 01 06:14:41
TRACK 04 AUDIO
TITLE "04 最远的你是我最近的爱"
PERFORMER "陈宁"
REM REPLAYGAIN_TRACK_GAIN -7.1 dB
REM REPLAYGAIN_TRACK_PEAK 0.970001
INDEX 00 10:02:71
INDEX 01 10:04:71
TRACK 05 AUDIO
TITLE "05 静静的夜晚"
PERFORMER "陈宁"
REM REPLAYGAIN_TRACK_GAIN -7.1 dB
REM REPLAYGAIN_TRACK_PEAK 0.970001
INDEX 00 14:10:71
INDEX 01 14:12:71
TRACK 06 AUDIO
TITLE "06 春夏秋冬"
PERFORMER "陈宁"
REM REPLAYGAIN_TRACK_GAIN -5.6 dB
REM REPLAYGAIN_TRACK_PEAK 0.969971
INDEX 00 18:06:50
INDEX 01 18:08:50
TRACK 07 AUDIO
TITLE "07 不要再来伤害我"
PERFORMER "陈宁"
REM REPLAYGAIN_TRACK_GAIN -7.84 dB
REM REPLAYGAIN_TRACK_PEAK 0.970001
INDEX 00 21:49:10
INDEX 01 21:51:10
TRACK 08 AUDIO
TITLE "08 城里的月光"
PERFORMER "陈宁"
REM REPLAYGAIN_TRACK_GAIN -7.24 dB
REM REPLAYGAIN_TRACK_PEAK 0.970001
INDEX 00 26:03:01
INDEX 01 26:05:01
TRACK 09 AUDIO
TITLE "09 TIN PAN ALLEY"
PERFORMER "陈宁"
INDEX 00 30:19:19
INDEX 01 30:21:19
TRACK 10 AUDIO
TITLE "10 梨花又开放"
PERFORMER "陈宁"
INDEX 00 39:17:05
INDEX 01 39:19:05
TRACK 11 AUDIO
TITLE "11 告别"
PERFORMER "陈宁"
INDEX 00 42:59:38
INDEX 01 43:01:38


-------------------------------------------------------------------------------------


EAC抓取陈宁 -《那天晚上》.LOG:


EAC 抓取日志文件从9. 二月 2009, 15:50 用于 CD
未知艺术家 / 未知标题

使用驱动器 :TSSTcorpDVD-ROM TS-H352C Adapter: 0 ID: 0
读取模式 :不使用 C2,使用精确流, 禁用缓存的安全模式
组合读写偏移校正:0
读取 Lead-In 和 Lead-Out : 否

所用输出模式:内部 WAV 函数
44.100 Hz;16 Bit;立体声

其他选项 :
用静音填充抓取中丢失偏移的采样 : 是
去除首尾静音块 : 否
Win NT 及 2000 本地 Win32 接口


范围状态及错误
已选择范围
文件名 C:Documents and SettingsAdministrator桌面CDImage.wav (3)CDImage.wav

峰值电平 97.0 %
范围质量 100.0 %
CRC 7AF3D22F
复制成功

没有错误发生

状态报告结尾

--------------------------------------------------------------------------------------------------------

每个单曲.WAV经auCDtect.exe软件检测均符合CDDA概率。
超清晰,超好听的男声,有点象超低音炮赵鹏大师格调,不听错过就没机会了!
我觉得比赵鹏要好。。。赵鹏的声音虚,不够质感。
嘿嘿,一家之言。
【FILE "陈宁.-.[那天晚上].专辑.ape" WAVE】这样的CUE不知道foobar2000能放否?不管怎样先下下来再说。
感觉不错.
6星推荐,他的前张《酒红色的心》也是非常的不错,推荐下载。
不错啊
更新了CUE文件
在第三行少了 .(ape)
靓声的东西值得收藏!呦!?还没发现,K2又出HD啦,哈哈太激烈啦
又见 陈宁,惊喜
《酒红色的心》是我的大爱啊
谢谢楼主
下了再说,谢了楼主!
好听的老歌,谢谢!
陈宁时隔三年才出的第二张专辑。相对于时下浮躁的乐坛实在难得。相对于那些发片量快得惊人的歌手,我觉得陈宁要敬业得多。三年前我就买过他的《酒红色的心》,五十多块,感觉相对于他醇厚的民谣味已经很值了。《那天晚上》的推出,让我对他更加佩服:在这张专辑里完全可以感受得到他的用心和深情。其中《静静的夜晚》是我最喜欢的歌曲,制作也很有创意:一种质朴的简单和回归。我觉得他没有模仿谁,比之赵鹏,仁者见仁罢了!至少更深情更耐听!