Joy Division -《Unknown Pleasures》[APE]

Joy Division -《Unknown Pleasures》[APE]
  • 片  名  Joy Division -《Unknown Pleasures》[APE]
  • 简  介  发行时间: 1979年地区: 美国语言: 英语
  • 类  别  音乐
  • 小  类  欧美音乐


  • 详细介绍专辑中文名: Unknown Pleasures歌手: Joy Division资源格式: APE发行时间: 1979年地区: 美国语言: 英语简介:
    专辑简介:
    Joy Division是英国七十年代(post punk)后朋克乐队中在最具影响力的一支乐队,组建于英国曼彻斯特,乐队成员包括主唱Ian Curtis、吉他手Bernars Sumner、贝司手Peter Hook、鼓手Stephen Morris。乐队起初命名为 Warsaw (华沙),1978年1月正式更名为 Joy Division (快乐小分队),这个名字来源于二战纳粹组建的慰安妇分队,1979年6月乐队推出了第一张专辑《Unknown Pleasures》(莫名的快乐),1980年5月18日主唱Ian Curtis用一种极端的方式摆脱了他久治不愈的癫痫病——自杀。7月,Joy Division推出第二张专辑《Closer》(靠近),这张在Ian Curtis身后才出版的专辑被乐评人评为是“经典中的经典”。
    主唱Ian Curtis的唱腔对后世歌者有非常大的影响。他惯于用偏离旋律线的唱腔游走于乐器间,造成唱腔与旋律成分离线进行的风格。这种演唱方式传达出一种疏离压抑的感觉,后来的Echo and Bunnymen, The Cure, Bauhaus, Tears For Fears, Teardrop Explodes, The Smiths, The band Of Holy Joy…都可以看到Ian Curtis式唱腔的影响,我们称之为低调乐派(Low Key)风。这种低调风事实上是由punk的极端摆荡到另一个极端。
    Joy Division余下的三名团员和Gillian Gilbert合组New Order,成为英国有史以来最畅销的地下乐团。
  • Joy Division -《Unknown Pleasures》[APE]_large

精选评论

怎么没有CUE文件?
可以试试(我从自己CD抓取的):

REM GENRE Rock
REM DATE 1979
REM DISCID 7009350A
REM COMMENT "ExactAudioCopy v0.99pb4"
CATALOG 0075992584029
PERFORMER "Joy Division"
TITLE "Unknown Pleasures"
FILE "CDImage.wav" WAVE
TRACK 01 AUDIO
TITLE "Disorder"
PERFORMER "Joy Division"
ISRC 000000000000
INDEX 00 00:00:00
INDEX 01 00:00:33
TRACK 02 AUDIO
TITLE "Day Of The Lords"
PERFORMER "Joy Division"
ISRC 000000000000
INDEX 00 03:28:42
INDEX 01 03:31:73
TRACK 03 AUDIO
TITLE "Candidate"
PERFORMER "Joy Division"
ISRC 000000000000
INDEX 00 08:15:73
INDEX 01 08:19:05
TRACK 04 AUDIO
TITLE "Insight"
PERFORMER "Joy Division"
ISRC 000000000000
INDEX 00 11:19:38
INDEX 01 11:21:58
TRACK 05 AUDIO
TITLE "New Dawn Fades"
PERFORMER "Joy Division"
ISRC 000000000000
INDEX 00 15:45:31
INDEX 01 15:51:00
TRACK 06 AUDIO
TITLE "She's Lost Control"
PERFORMER "Joy Division"
ISRC 000000000000
INDEX 00 20:36:23
INDEX 01 20:39:30
TRACK 07 AUDIO
TITLE "Shadowplay"
PERFORMER "Joy Division"
ISRC 000000000000
INDEX 00 24:33:32
INDEX 01 24:36:38
TRACK 08 AUDIO
TITLE "Wilderness"
PERFORMER "Joy Division"
ISRC 000000000000
INDEX 00 28:27:24
INDEX 01 28:30:05
TRACK 09 AUDIO
TITLE "Interzone"
PERFORMER "Joy Division"
ISRC 000000000000
INDEX 00 31:06:04
INDEX 01 31:08:70
TRACK 10 AUDIO
TITLE "I Remember Nothing"
PERFORMER "Joy Division"
ISRC 000000000000
INDEX 00 33:21:70
INDEX 01 33:25:23
很经典的专辑~~~~
有内嵌cue。。
代表性的封面!

感谢您的CUE文件,
非常好用。
谢谢,
原APE里内嵌CUE,
关了内嵌,
用这个更好玩。
下了,谢谢楼主!