郑锦昌 -《歌曲精选第一集》[APE]

郑锦昌 -《歌曲精选第一集》[APE]
  • 片  名  郑锦昌 -《歌曲精选第一集》[APE]
  • 简  介  Douban1757683:9.0(69 votes)音乐风格: 流行发行时间: 1991年地区: 香港语言: 粤语
  • 类  别  音乐
  • 小  类  华语音乐


  • 详细介绍简介: 专辑介绍:
    郑锦昌在大马有<粤曲王子>之称。他所唱的粤曲实际上是时代粤语歌曲.他在六十年代末开始灌录粤语流行曲唱片,迅速在东南亚各地走红,在香港,他的一首改自<岷江夜曲>的<愿化惜花蜂>也非常流行。到七十年代,更是红透各个华人地区.
  • 郑锦昌 -《歌曲精选第一集》[APE]_large

精选评论

Exact Audio Copy V0.99 prebeta 4 from 23. January 2008

EAC 抓取日志文件从13. 三月 2010, 17:32

未知艺术家 / 未知标题

使用驱动器 :SONY DVD RW AD-7240S Adapter: 5 ID: 0

读取模式 : 保护
使用精确流 : 是
废除音频缓冲 : 否
使用 C2 指针 : 否

读取偏移校正 : 0
读取 Lead-In 和 Lead-Out : 否
用静音填充抓取中丢失偏移的采样 : 是
去除首尾静音块 : 否
在 CRC 计算中使用了空样本 : 否
已用接口 : Win NT 及 2000 本地 Win32 接口

所用输出格式 : Monkey's Audio 无损编码器
已选比特率 : Fast Lossless Compression
质量 : 高
添加 ID3 标签 : 是
命令行压缩器 : C:Program FilesMonkey's AudioMAC.exe


被抓轨 CD 的 TOC

音轨 | 开始 | 长度 | 起始扇区 | 结尾扇区
--------------------------------------------------
1 | 0:00.00 | 3:28.25 | 0 | 15624
2 | 3:28.25 | 2:18.25 | 15625 | 25999
3 | 5:46.50 | 4:08.63 | 26000 | 44662
4 | 9:55.38 | 3:35.62 | 44663 | 60849
5 | 13:31.25 | 3:00.63 | 60850 | 74412
6 | 16:32.13 | 2:43.62 | 74413 | 86699
7 | 19:16.00 | 3:16.25 | 86700 | 101424
8 | 22:32.25 | 2:51.50 | 101425 | 114299
9 | 25:24.00 | 2:35.13 | 114300 | 125937
10 | 27:59.13 | 2:14.00 | 125938 | 135987
11 | 30:13.13 | 4:01.37 | 135988 | 154099
12 | 34:14.50 | 2:52.00 | 154100 | 166999
13 | 37:06.50 | 3:27.63 | 167000 | 182587
14 | 40:34.38 | 2:52.00 | 182588 | 195487
15 | 43:26.38 | 3:14.25 | 195488 | 210062
16 | 46:40.63 | 2:41.50 | 210063 | 222187


范围状态及错误

已选择范围

文件名 F:音乐郑锦昌歌曲精选 第一集未知艺术家 - 未知标题.wav

峰值电平 99.8 %
范围质量 100.0 %
复制 CRC 841067D0
复制成功

没有错误发生

状态报告结尾
压缩包内证件齐全
永远的粤语时代曲
WOCAO
那发型 那红唇 那眼神 粤曲王子郑锦昌 那边人好像都爱叫什么昌的 。。。。。。
谢谢楼主!