《悬崖上的金鱼姬》(Ponyo on the Cliff by the Sea)[ACB字幕组官方发布][日/意/英][1080P][BDRip]

《悬崖上的金鱼姬》(Ponyo on the Cliff by the Sea)[ACB字幕组官方发布][日/意/英][1080P][BDRip]
  • 片  名  《悬崖上的金鱼姬》(Ponyo on the Cliff by the Sea)[ACB字幕组官方发布][日/意/英][1080P][BDRip]
  • 简  介  发行时间: 2008年语言: 英语,日语,意大利语
  • 类  别  动漫
  • 小  类  剧场动画


  • 详细介绍中文名: 悬崖上的金鱼姬英文名: Ponyo on the Cliff by the Sea别名: 悬崖上的金鱼公主,Gake no Ue no Ponyo,Ponyo Sulla Scogliera资源格式: BDRip版本: [ACB字幕组官方发布][日/意/英][1080P]发行时间: 2008年导演: 宫崎骏配音演员: 长岛一茂
    天海祐希
    所乔治
    矢野显子
    柊瑠美
    吉行和子地区: 日本语言: 英语,日语,意大利语简介: 【首播时间】2008年7月
    【字幕制作】无字幕
    【剧情介绍】
    5岁的宗介从小就生长在海边小城上,他的家就在临海的悬崖上。有一天,宗介捡到了一个被海浪冲上岸的空瓶子,在里面有一条被卡住头的小金鱼。原来这只小金鱼就是人鱼女王的女儿波尼。原本是偷偷驾着水母溜出来玩的波尼,结果却被瓶子卡住了她那大大的头。于是宗介把波尼从瓶子里解救出来,并把她带回了自己家,养在塑料盆里。波尼在宗介家过得很愉快,她很喜欢宗介,宗介也喜欢她。然而,快乐的日子很快就过去了,波尼的爸爸藤本把女儿带回了海底。
    波尼回家后,十分思念宗介,她做出了一个大胆的决定——她要变成人,她希望自己能变成像宗介那样的人。在妹妹们的帮助下,波尼偷出了父亲的魔法,向人类世界游去。不料,蕴含着危险魔力的生命之水失控了。于是,海水暴涨,暴风狂作,妹妹们变成了可怕的巨型鱼,海浪向宗介一家所在的悬崖扑去……
    ACB字幕组资源命名格式:
    片源发布:[ACB-Raws]..........
    翻译发布:[ACB_Sub]..........
    音乐发布:[ACB-Music]..........
    新成立的字幕组还需要大家的支持
    具体请关注论坛www.xg-y.com
    ACB字幕组片源发布 不包含字幕
    引用General
    Complete name : D:\emule\[ACB-Raws]Ponyo on the Cliff by the Sea.1080P.AVC.Japanese.DTS-ES.Italian.AC3.English.AC3.BDRip.mkv
    Format : Matroska
    File size : 5.47 GiB
    Duration : 1h 42mn
    Overall bit rate : 7 665 Kbps
    Movie name : [ACB-Raws]Ponyo on the Cliff by the Sea.1080P.AVC.Japanese.DTS-ES.Italian.AC3.English.AC3.BDRip
    Encoded date : UTC 2010-11-14 01:41:07
    Writing application : mkvmerge v2.4.0 ('Fumbling Towards Ecstasy') built on Oct 11 2008 20:13:15
    Writing library : libebml v0.7.7 + libmatroska v0.8.1
    Cover : Yes / Yes / Yes / Yes / Yes / Yes
    Video 2
    ID : 2
    Format : DTS
    Format/Info : Digital Theater Systems
    Format profile : ES
    Codec ID : A_DTS
    Duration : 1h 42mn
    Bit rate mode : Constant
    Bit rate : 1 510 Kbps
    Channel(s) : 7 channels
    Channel positions : Front: L C R, Rear: L C R, LFE
    Sampling rate : 48.0 KHz
    Resolution : 24 bits
    Stream size : 1.08 GiB (20%)
    Language : Japanese
    Audio 4
    ID : 4
    Format : AC-3
    Format/Info : Audio Coding 3
    Codec ID : A_AC3
    Duration : 1h 42mn
    Bit rate mode : Constant
    Bit rate : 256 Kbps
    Channel(s) : 2 channels
    Channel positions : L R
    Sampling rate : 48.0 KHz
    Stream size : 187 MiB (3%)
    Language : English
    视频信息如上 请酌情下载
    由于前一个发布账号被盗ID:l8234950
    故使用新发布账号
  • 《悬崖上的金鱼姬》(Ponyo on the Cliff by the Sea)[ACB字幕组官方发布][日/意/英][1080P][BDRip]_large