姫神.Himekami. -《Journey To Zipangu》[APE]

姫神.Himekami. -《Journey To Zipangu》[APE]
  • 片  名  姫神.Himekami. -《Journey To Zipangu》[APE]
  • 简  介  发行时间: 1993年08月
  • 类  别  音乐
  • 小  类  古典音乐


  • 详细介绍专辑中文名: Journey To Zipangu艺术家: 姫神.Himekami.资源格式: APE发行时间: 1993年08月地区: 美国语言: 英语简介:
    专辑介绍:
    这张专辑是[ZIPANGU]的海外版,曲目一样,只是从新编排顺序.
    以下是英日文对照
    South Seas Of Light (光の海南)
    Isle Of Gold And Silver(金銀島)
    Journey To Zipangu(火振り神事 ~Zipanguのテーマ~)
    Eldorado,To The East (東方エルドラド)
    The Wind,In Vast Circulation (風、大循環に)
    The White Awakening Of The Eastern Sky(白くひらける東のそら)
    Phosphorescence (燐光)
    Soar In Heaven (天翔ける)
    The Transparent Surges,Ever So Blue(うら青く波涛は澄み)
    姫神的一生:
    星吉昭1946年3月16日生于 日本宮城县若柳町(宫城属东北地方,而若柳町位于宫城县的北部,毗邻岩手县),七个孩子中的幼子,他的家位于一个僻静的农村,离学校要走一个多小时。父亲有时会吹奏尺八(日本长笛),应该是他最早的音乐启蒙,小学一年级的时候他非常喜欢音乐教师菅原喜代弹奏的风琴,从此便憧憬成为一名音乐家。
       18岁的时候星吉昭 此后,他接触到能演绎出各种音色的电子乐器并为之着迷, 1971年他25岁那年取得JVC全国电子琴大赛最高奖。在东京打拼了差不多十年后,他感到了前所未有的身心疲累,正在他打算好好休整的时候,接到了在盛冈(岩手县首府,向北不远是岩手县内有名的风景区姫神山(海拔1124米),星吉昭的工作室就在姫神山山麓的田濑湖畔,“姫神”即得名于此)担任电子琴教师的工作,于是他来到了岩手,在接触到东北地方传统文的同时星吉昭开始探索全新的自我。
      东北地方是大和文明的发祥地,古老的土地上千年流传着自绳文时代起萌发的传统文化,亘古不变的清透澈骨之风在高耸的群山间回巡吹拂着,牵引出无数久远深长的岁月的记忆。星吉昭首先感铭于岩手县的代表性民谣「南部牛追い唄」,以及其他东北地方的传统艺术、民俗以及内陆地区生活的人们的心灵。比对于他在此前一直从事的爵士音乐的源头黑人灵歌,星吉昭将东北地方的民俗音乐称为“北人灵歌”。这些素直纯朴又丰富多彩的民间艺术成为星吉昭最主要的创作灵感来源。
       1980年「姫神せんせいしょん」结成,创作的首个作品「奥の細道」(《幽径》)作为一电台节目的背景音乐播出,引起听众的注意及问询,1981年2月「姫神せんせいしょん」发表了单曲「奥の細道」并正式出道,半年后首张同名专辑发行。1984年乐队改名为「姫神」,并成为只有星吉昭一人的组合。
      姫神的作品风格清醇,饱含着人类对神或者说自然的崇敬与爱,一方面融有深厚的民族性质,一方面采用大量电子音乐元素,hip hop、house节奏等等现代的音乐表达方式(很典型的new age,星吉昭又原本就是电子琴高手)。这音乐是活的,因为渗透着真实的历史与人文风土,听的时候可以感觉到从遥远的奥羽山脉、北上高地所流泻飘散出的神风之清响,召唤着我们这些寄身于城市的人们,召唤着那些最亲近自然的人类祖先的灵魂。
      出道二十余年以来
  • 姫神.Himekami. -《Journey To Zipangu》[APE]_large

精选评论

伟大的姬神,真是好东东
好音乐,收下了
姬神!
谢谢楼主分享支持你!
CUE的都是错误的,请发布个正确的CUE文件
正确的在这里,文件名按照自己的习惯修改哦!

PERFORMER "姬神"
TITLE "Journey To Zipangu"
FILE "姫神.-.[Journey.To.Zipangu].专辑.(ape).ape" WAVE
TRACK 01 AUDIO
TITLE "South Seas Of Light"
PERFORMER "Himekami"
INDEX 01 00:00:00
TRACK 02 AUDIO
TITLE "Isle Of Gold & Silver"
PERFORMER "Himekami"
INDEX 01 04:19:27
TRACK 03 AUDIO
TITLE "Journey To Zipangu"
PERFORMER "Himekami"
INDEX 01 09:12:37
TRACK 04 AUDIO
TITLE "Eldorado, To The East"
PERFORMER "Himekami"
INDEX 01 15:02:50
TRACK 05 AUDIO
TITLE "The Wind, In Vast Circulation"
PERFORMER "Himekami"
INDEX 01 20:02:37
TRACK 06 AUDIO
TITLE "The White Awakening Of The Eastern Sky"
PERFORMER "Himekami"
INDEX 01 24:54:22
TRACK 07 AUDIO
TITLE "Phosphoresence"
PERFORMER "Himekami"
INDEX 01 28:41:02
TRACK 08 AUDIO
TITLE "Soar In The Heaven"
PERFORMER "Himekami"
INDEX 01 32:55:22
TRACK 09 AUDIO
TITLE "The Tranparent Surges, Ever So Blue"
PERFORMER "Himekami"
INDEX 01 35:48:47