The Charlatans -《Up to Our Hips》[FLAC]

The Charlatans -《Up to Our Hips》[FLAC]
  • 片  名  The Charlatans -《Up to Our Hips》[FLAC]
  • 简  介  音乐风格: 摇滚发行时间: 1994年地区: 英国语言: 英语
  • 类  别  音乐
  • 小  类  欧美音乐


  • 详细介绍专辑英文名: Up to Our Hips歌手: The Charlatans音乐风格: 摇滚资源格式: FLAC发行时间: 1994年地区: 英国语言: 英语简介: 音乐风格:Britpop/Madchester
    专辑介绍:
    这是The Charlatans的第三张专辑。
    The Charlatans UK 对国内乐迷来说可能有点陌生,因为当年BRITPOP的顶级位置已经被SUEDE、BLUR、OASIS这些大红大紫乐队所占据~但他们却凭借着自身的实力在各地拥有着众多的歌迷。其实~乐队从一开始出道便十分顺利,他们几乎每张专辑都是经典。他们的热门歌曲多如牛毛。他们也是唯一的一个在解散又重新复出后仍能保持高水准的乐队,他们的复出专辑“TELLIN‘ STORIES”一出版便夺得了英国排行榜的冠军,这绝对是个奇迹。这成立于1989年、活跃于九十年代的英伦乐队见证了英式运动的前后发展,同样是来自BRITPOP重镇MANCHESTER,在继承了STONE ROSES与HAPPY MONDAYS的同时,也将吉他流行曲式结合创造出自己的风格。
  • The Charlatans -《Up to Our Hips》[FLAC]_large

精选评论

留名先
一支经典的Brit-pop乐队!
Brit-pop喜欢~封面也不错!我喜欢的风格!呵呵~谢谢楼主分享!
引用Exact Audio Copy V0.99 prebeta 5 from 4. May 2009

EAC extraction logfile from 30. August 2009, 11:52

The Charlatans / Up to Our Hips

Used drive : PLEXTOR CD-R PREMIUM2 Adapter: 1 ID: 0

Read mode : Secure
Utilize accurate stream : Yes
Defeat audio cache : Yes
Make use of C2 pointers : No

Read offset correction : 30
Overread into Lead-In and Lead-Out : Yes
Fill up missing offset samples with silence : Yes
Delete leading and trailing silent blocks : No
Null samples used in CRC calculations : Yes
Used interface : Installed external ASPI interface
Gap handling : Appended to previous track

Used output format : Internal WAV Routines
Sample format : 44.100 Hz; 16 Bit; Stereo


TOC of the extracted CD

Track | Start | Length | Start sector | End sector
---------------------------------------------------------
1 | 0:00.32 | 4:26.15 | 32 | 19996
2 | 4:26.47 | 4:10.10 | 19997 | 38756
3 | 8:36.57 | 3:11.03 | 38757 | 53084
4 | 11:47.60 | 6:17.42 | 53085 | 81401
5 | 18:05.27 | 4:31.03 | 81402 | 101729
6 | 22:36.30 | 3:13.45 | 101730 | 116249
7 | 25:50.00 | 4:32.00 | 116250 | 136649
8 | 30:22.00 | 6:06.07 | 136650 | 164106
9 | 36:28.07 | 3:22.05 | 164107 | 179261
10 | 39:50.12 | 5:07.08 | 179262 | 202294


Track 1

Filename C:supangThe Charlatans -1994- Up to Our Hips (BBL 147 CD)1. Come in Number 21.wav

Pre-gap length 0:00:02.32

Peak level 97.7 %
Track quality 100.0 %
Test CRC F5B2B44A
Copy CRC F5B2B44A
Accurately ripped (confidence 2) [D5AA387F]
Copy OK

Track 2

Filename C:supangThe Charlatans -1994- Up to Our Hips (BBL 147 CD)2. I Never Want an Easy Life If Me and He Were Ever to Get There.wav

Pre-gap length 0:00:02.67

Peak level 97.7 %
Track quality 100.0 %
Test CRC F336F290
Copy CRC F336F290
Accurately ripped (confidence 2) [98A6A1EA]
Copy OK

Track 3

Filename C:supangThe Charlatans -1994- Up to Our Hips (BBL 147 CD)3. Can't Get Out of Bed.wav

Pre-gap length 0:00:01.60

Peak level 97.7 %
Track quality 100.0 %
Test CRC F05670DE
Copy CRC F05670DE
Accurately ripped (confidence 2) [CFACCAC7]
Copy OK

Track 4

Filename C:supangThe Charlatans -1994- Up to Our Hips (BBL 147 CD)4. Feel Flows.wav

Pre-gap length 0:00:01.60

Peak level 95.4 %
Track quality 99.9 %
Test CRC 2805A755
Copy CRC 2805A755
Accurately ripped (confidence 2) [DB8116C7]
Copy OK

Track 5

Filename C:supangThe Charlatans -1994- Up to Our Hips (BBL 147 CD)5. Autograph.wav

Peak level 96.4 %
Track quality 100.0 %
Test CRC D2F44696
Copy CRC D2F44696
Accurately ripped (confidence 2) [7A34B4D4]
Copy OK

Track 6

Filename C:supangThe Charlatans -1994- Up to Our Hips (BBL 147 CD)6. Jesus Hairdo.wav

Pre-gap length 0:00:01.25

Peak level 97.7 %
Track quality 99.9 %
Test CRC EEA1A06F
Copy CRC EEA1A06F
Accurately ripped (confidence 2) [0F10F5EB]
Copy OK

Track 7

Filename C:supangThe Charlatans -1994- Up to Our Hips (BBL 147 CD)7. Up to Our Hips.wav

Pre-gap length 0:00:01.63

Peak level 97.7 %
Track quality 100.0 %
Test CRC 2F1A7E28
Copy CRC 2F1A7E28
Accurately ripped (confidence 2) [4246A63C]
Copy OK

Track 8

Filename C:supangThe Charlatans -1994- Up to Our Hips (BBL 147 CD)8. Patrol.wav

Pre-gap length 0:00:00.33

Peak level 97.7 %
Track quality 100.0 %
Test CRC DE40D457
Copy CRC DE40D457
Accurately ripped (confidence 2) [890F7217]
Copy OK

Track 9

Filename C:supangThe Charlatans -1994- Up to Our Hips (BBL 147 CD)9. Another Rider Up in Flames.wav

Pre-gap length 0:00:02.00

Peak level 97.7 %
Track quality 100.0 %
Test CRC 839D423C
Copy CRC 839D423C
Accurately ripped (confidence 2) [CB49752E]
Copy OK

Track 10

Filename C:supangThe Charlatans -1994- Up to Our Hips (BBL 147 CD)10. Inside-Looking Out.wav

Pre-gap length 0:00:00.67

Peak level 97.7 %
Track quality 100.0 %
Test CRC 45A31879
Copy CRC 45A31879
Accurately ripped (confidence 2) [B2CCA096]
Copy OK


All tracks accurately ripped

No errors occurred

End of status report