叶咏诗/俄罗斯爱乐 -《彼得与狼》(Peter and the Wolf)[FLAC]

叶咏诗/俄罗斯爱乐 -《彼得与狼》(Peter and the Wolf)[FLAC]
  • 片  名  叶咏诗/俄罗斯爱乐 -《彼得与狼》(Peter and the Wolf)[FLAC]
  • 简  介  古典类型: 交响曲发行时间: 1997年
  • 类  别  音乐
  • 小  类  古典音乐


  • 详细介绍专辑英文名: Peter and the Wolf专辑中文名: 彼得与狼艺术家: 叶咏诗/俄罗斯爱乐古典类型: 交响曲资源格式: FLAC发行时间: 1997年地区: 香港语言: 普通话简介: 专辑介绍
    本张专辑包含了三部作品:普罗科菲耶夫的“彼得与狼”;布里顿的“青少年管弦乐入门”;圣·桑斯的“动物狂欢节”。
    这三部对于古典音乐的入门者来说是必听的选择。也是早期音乐教育的很好的选择。这张唱片的最大的特点就是旁白解说用的是普通话。这样便于广大的中国古典乐爱好者更好的理解作品。我把此片献给刚入门的古典音乐爱好者,和未来的古典音乐爱好者们。
    曲目我不多介绍了,内页里有非常详细的说明了。

  • 叶咏诗/俄罗斯爱乐 -《彼得与狼》(Peter and the Wolf)[FLAC]_large

精选评论

很好的古典音乐入门CD,感谢分享。
确实非常的好
下来给我家宝贝听
orz一下狼的鼻子,第一眼没看清,还以为是peter的XXX……
还是雨果的!
我承认我是被lz图片吸引而来~~~
很不错的资源
谢楼主。找《彼得与狼》普通话版的好久了。偶这里的都是英语、德语、法语、西班牙语版的。呵呵。
谢谢楼主分享好碟,辛苦了。
十多年前在南京师大宁海路门口见过这张CD,谢谢楼主勾起我美好的回忆。
REM GENRE Classical
REM DATE 1997
REM DISCID 90121E2B
REM COMMENT "ExactAudioCopy v0.99pb5"
PERFORMER "叶咏诗指挥俄罗斯爱乐管弦乐团"
TITLE "叶咏诗 - 彼得与狼(普通话版)"
FILE "叶咏诗 - 彼得与狼(普通话版).flac" WAVE
TRACK 01 AUDIO
TITLE "普罗科菲耶夫 - 彼得与狼 - 01. 人物介绍"
PERFORMER "叶咏诗指挥俄罗斯爱乐管弦乐团"
INDEX 01 00:00:00
TRACK 02 AUDIO
TITLE "普罗科菲耶夫 - 彼得与狼 - 02. 彼得、小鸟和鸭子"
PERFORMER "叶咏诗指挥俄罗斯爱乐管弦乐团"
INDEX 01 02:22:25
TRACK 03 AUDIO
TITLE "普罗科菲耶夫 - 彼得与狼 - 03. 猫和爷爷"
PERFORMER "叶咏诗指挥俄罗斯爱乐管弦乐团"
INDEX 01 07:04:50
TRACK 04 AUDIO
TITLE "普罗科菲耶夫 - 彼得与狼 - 04. 大野狼来了"
PERFORMER "叶咏诗指挥俄罗斯爱乐管弦乐团"
INDEX 01 11:16:12
TRACK 05 AUDIO
TITLE "普罗科菲耶夫 - 彼得与狼 - 05. 猎人出现"
PERFORMER "叶咏诗指挥俄罗斯爱乐管弦乐团"
INDEX 01 20:18:25
TRACK 06 AUDIO
TITLE "普罗科菲耶夫 - 彼得与狼 - 06. 胜利大游行·终曲"
PERFORMER "叶咏诗指挥俄罗斯爱乐管弦乐团"
INDEX 01 22:45:25
TRACK 07 AUDIO
TITLE "布里顿 - 青少年管弦乐入门 - 01. 管弦乐团介绍"
PERFORMER "叶咏诗指挥俄罗斯爱乐管弦乐团"
INDEX 01 27:12:00
TRACK 08 AUDIO
TITLE "布里顿 - 青少年管弦乐入门 - 02. 合奏"
PERFORMER "叶咏诗指挥俄罗斯爱乐管弦乐团"
INDEX 01 27:53:50
TRACK 09 AUDIO
TITLE "布里顿 - 青少年管弦乐入门 - 03. 长笛、短笛"
PERFORMER "叶咏诗指挥俄罗斯爱乐管弦乐团"
INDEX 01 30:35:62
TRACK 10 AUDIO
TITLE "布里顿 - 青少年管弦乐入门 - 04. 双簧管"
PERFORMER "叶咏诗指挥俄罗斯爱乐管弦乐团"
INDEX 01 31:08:62
TRACK 11 AUDIO
TITLE "布里顿 - 青少年管弦乐入门 - 05. 单簧管"
PERFORMER "叶咏诗指挥俄罗斯爱乐管弦乐团"
INDEX 01 32:18:50
TRACK 12 AUDIO
TITLE "布里顿 - 青少年管弦乐入门 - 06. 巴松管"
PERFORMER "叶咏诗指挥俄罗斯爱乐管弦乐团"
INDEX 01 33:01:00
TRACK 13 AUDIO
TITLE "布里顿 - 青少年管弦乐入门 - 07. 小提琴"
PERFORMER "叶咏诗指挥俄罗斯爱乐管弦乐团"
INDEX 01 33:56:50
TRACK 14 AUDIO
TITLE "布里顿 - 青少年管弦乐入门 - 08. 中提琴"
PERFORMER "叶咏诗指挥俄罗斯爱乐管弦乐团"
INDEX 01 34:40:37
TRACK 15 AUDIO
TITLE "布里顿 - 青少年管弦乐入门 - 09. 大提琴"
PERFORMER "叶咏诗指挥俄罗斯爱乐管弦乐团"
INDEX 01 35:43:62
TRACK 16 AUDIO
TITLE "布里顿 - 青少年管弦乐入门 - 10. 低音大提琴"
PERFORMER "叶咏诗指挥俄罗斯爱乐管弦乐团"
INDEX 01 36:54:62
TRACK 17 AUDIO
TITLE "布里顿 - 青少年管弦乐入门 - 11. 竖琴"
PERFORMER "叶咏诗指挥俄罗斯爱乐管弦乐团"
INDEX 01 37:54:00
TRACK 18 AUDIO
TITLE "布里顿 - 青少年管弦乐入门 - 12. 法国号"
PERFORMER "叶咏诗指挥俄罗斯爱乐管弦乐团"
INDEX 01 38:46:50
TRACK 19 AUDIO
TITLE "布里顿 - 青少年管弦乐入门 - 13. 小号"
PERFORMER "叶咏诗指挥俄罗斯爱乐管弦乐团"
INDEX 01 39:36:50
TRACK 20 AUDIO
TITLE "布里顿 - 青少年管弦乐入门 - 14. 长号、大号"
PERFORMER "叶咏诗指挥俄罗斯爱乐管弦乐团"
INDEX 01 40:10:50
TRACK 21 AUDIO
TITLE "布里顿 - 青少年管弦乐入门 - 15. 定音鼓"
PERFORMER "叶咏诗指挥俄罗斯爱乐管弦乐团"
INDEX 01 41:16:12
TRACK 22 AUDIO
TITLE "布里顿 - 青少年管弦乐入门 - 16. 低音打鼓、钹"
PERFORMER "叶咏诗指挥俄罗斯爱乐管弦乐团"
INDEX 01 41:38:00
TRACK 23 AUDIO
TITLE "布里顿 - 青少年管弦乐入门 - 17. 铃鼓、三角铁"
PERFORMER "叶咏诗指挥俄罗斯爱乐管弦乐团"
INDEX 01 41:47:70
TRACK 24 AUDIO
TITLE "布里顿 - 青少年管弦乐入门 - 18. 小军鼓、木鱼"
PERFORMER "叶咏诗指挥俄罗斯爱乐管弦乐团"
INDEX 01 42:00:07
TRACK 25 AUDIO
TITLE "布里顿 - 青少年管弦乐入门 - 19. 木琴"
PERFORMER "叶咏诗指挥俄罗斯爱乐管弦乐团"
INDEX 01 42:11:25
TRACK 26 AUDIO
TITLE "布里顿 - 青少年管弦乐入门 - 20. 响板、锣"
PERFORMER "叶咏诗指挥俄罗斯爱乐管弦乐团"
INDEX 01 42:20:37
TRACK 27 AUDIO
TITLE "布里顿 - 青少年管弦乐入门 - 21. 鞭"
PERFORMER "叶咏诗指挥俄罗斯爱乐管弦乐团"
INDEX 01 42:31:50
TRACK 28 AUDIO
TITLE "布里顿 - 青少年管弦乐入门 - 22. 合奏"
PERFORMER "叶咏诗指挥俄罗斯爱乐管弦乐团"
INDEX 01 43:02:10
TRACK 29 AUDIO
TITLE "圣桑 - 动物狂欢节 - 01. 乐曲介绍"
PERFORMER "叶咏诗指挥俄罗斯爱乐管弦乐团"
INDEX 01 46:15:50
TRACK 30 AUDIO
TITLE "圣桑 - 动物狂欢节 - 02. 引子与狮王进行曲"
PERFORMER "叶咏诗指挥俄罗斯爱乐管弦乐团"
INDEX 01 47:58:50
TRACK 31 AUDIO
TITLE "圣桑 - 动物狂欢节 - 03. 母鸡和公鸡"
PERFORMER "叶咏诗指挥俄罗斯爱乐管弦乐团"
INDEX 01 50:36:50
TRACK 32 AUDIO
TITLE "圣桑 - 动物狂欢节 - 04. 野驴"
PERFORMER "叶咏诗指挥俄罗斯爱乐管弦乐团"
INDEX 01 51:49:37
TRACK 33 AUDIO
TITLE "圣桑 - 动物狂欢节 - 05. 乌龟"
PERFORMER "叶咏诗指挥俄罗斯爱乐管弦乐团"
INDEX 01 53:12:00
TRACK 34 AUDIO
TITLE "圣桑 - 动物狂欢节 - 06. 大象"
PERFORMER "叶咏诗指挥俄罗斯爱乐管弦乐团"
INDEX 01 55:24:62
TRACK 35 AUDIO
TITLE "圣桑 - 动物狂欢节 - 07. 袋鼠"
PERFORMER "叶咏诗指挥俄罗斯爱乐管弦乐团"
INDEX 01 57:35:05
TRACK 36 AUDIO
TITLE "圣桑 - 动物狂欢节 - 08. 水族馆"
PERFORMER "叶咏诗指挥俄罗斯爱乐管弦乐团"
INDEX 01 59:02:50
TRACK 37 AUDIO
TITLE "圣桑 - 动物狂欢节 - 09. 长耳人"
PERFORMER "叶咏诗指挥俄罗斯爱乐管弦乐团"
INDEX 01 61:40:25
TRACK 38 AUDIO
TITLE "圣桑 - 动物狂欢节 - 10. 林中杜鹃"
PERFORMER "叶咏诗指挥俄罗斯爱乐管弦乐团"
INDEX 01 62:47:00
TRACK 39 AUDIO
TITLE "圣桑 - 动物狂欢节 - 11. 笼中鸟"
PERFORMER "叶咏诗指挥俄罗斯爱乐管弦乐团"
INDEX 01 64:51:12
TRACK 40 AUDIO
TITLE "圣桑 - 动物狂欢节 - 12. 钢琴家"
PERFORMER "叶咏诗指挥俄罗斯爱乐管弦乐团"
INDEX 01 66:36:37
TRACK 41 AUDIO
TITLE "圣桑 - 动物狂欢节 - 13. 化石"
PERFORMER "叶咏诗指挥俄罗斯爱乐管弦乐团"
INDEX 01 68:46:00
TRACK 42 AUDIO
TITLE "圣桑 - 动物狂欢节 - 14. 天鹅"
PERFORMER "叶咏诗指挥俄罗斯爱乐管弦乐团"
INDEX 01 70:48:25
TRACK 43 AUDIO
TITLE "圣桑 - 动物狂欢节 - 15. 终曲"
PERFORMER "叶咏诗指挥俄罗斯爱乐管弦乐团"
INDEX 01 74:41:37
把这一行 FILE "叶咏诗 - 彼得与狼(普通话版).flac" WAVE中的文件名 改一下即可。
根据CD的曲目列表敲了N多字,省的大家敲了。


呵呵......没有正宗的俄语版的?
我有這張cd~好早的東西了~