东方神起(Tohoshinki) -《Together》单曲[APE]

东方神起(Tohoshinki) -《Together》单曲[APE]
  • 片  名  东方神起(Tohoshinki) -《Together》单曲[APE]
  • 简  介  Douban2375377:8.5(551 votes)音乐风格: 流行发行时间: 2007年12月19日地区: 日本语言: 日语
  • 类  别  音乐
  • 小  类  日韩音乐


  • 详细介绍简介: 专辑介绍:
    东方神起的第15个日语单曲《together》开始销售,主打曲《together》是一首欢快的舞曲。
    东方神起的最新单曲“Together”为Sanrio电影《Cinnamon the MOVIE》的主题曲。“Together”的旋律明朗轻快,另收入“Together”(Less Vocal)。
    此版本额外收入“Together -Kids Chorus ver.-”和“Forever Love -Bell´n´Snow Edit-”。

    PS:下载完成后请各位亲自行检测音质,如有问题的话M我。
    有意的亲请加仙后群:23845795(超级群哦!)
    由于本人学校网络速度有限,请大家耐心下载。
    最后一句要恶意挑衅去其他地方挑衅,不要把音乐与国家和政治、社会关联!
  • 东方神起(Tohoshinki) -《Together》单曲[APE]_large

精选评论

REM DISCID 24056604
REM COMMENT "ExactAudioCopy v0.99pb5"
PERFORMER "未知艺术家"
TITLE "未知标题"
FILE "东方神起.-.[Together].单曲.(APE).ape" APE
TRACK 01 AUDIO
TITLE "Track01"
PERFORMER "未知艺术家"
INDEX 01 00:00:00
TRACK 02 AUDIO
TITLE "Track02"
PERFORMER "未知艺术家"
INDEX 00 05:21:59
INDEX 01 05:24:37
TRACK 03 AUDIO
TITLE "Track03"
PERFORMER "未知艺术家"
INDEX 00 10:56:18
INDEX 01 11:00:00
TRACK 04 AUDIO
TITLE "Track04"
PERFORMER "未知艺术家"
INDEX 00 17:36:61
INDEX 01 17:40:22
Exact Audio Copy V0.99 prebeta 5 from 4. May 2009

EAC 抓取日志文件从1. 四月 2010, 14:18

未知艺术家 / 未知标题

使用驱动器 :Optiarc DVD RW AD-7700S Adapter: 0 ID: 1

读取模式 : 暴发

读取偏移校正 : 0
读取 Lead-In 和 Lead-Out : 否
用静音填充抓取中丢失偏移的采样 : 是
去除首尾静音块 : 否
在 CRC 计算中使用了空样本 : 否
已用接口 : Win NT 及 2000 本地 Win32 接口

所用输出格式 : 内部 WAV 函数
样本格式 : 44.100 Hz;16 Bit;立体声


被抓轨 CD 的 TOC

音轨 | 开始 | 长度 | 起始扇区 | 结尾扇区
--------------------------------------------------
1 | 0:00.00 | 5:24.37 | 0 | 24336
2 | 5:24.37 | 5:35.38 | 24337 | 49499
3 | 11:00.00 | 6:40.22 | 49500 | 79521
4 | 17:40.22 | 5:22.21 | 79522 | 103692


范围状态及错误

已选择范围

文件名 E:TVXQTogether.wav

计时问题 0:00:43

峰值电平 96.2 %
复制 CRC 456F1061
复制结束

没有错误发生

状态报告结尾
1. 版本
2. 专辑介绍 加粗

(请仔细对比之前的精华帖)

好了
我来烦下楼主~~亲爱的楼主啊~~你有没有Shine那张双A的无损啊?那张我好喜欢~~
这里真是什么好东西都有啊,我正需要这个好东西,VeryCD需要大家的支持.
洞房的粉丝都是脑X,连个轨都不会抓。
什么垃圾音乐