原声大碟 -《变形金刚大电影原音乐》(The Transformers: The Movie - Original Motion Picture Soundtrack)[FLAC]

原声大碟 -《变形金刚大电影原音乐》(The Transformers: The Movie - Original Motion Picture Soundtrack)[FLAC]
  • 片  名  原声大碟 -《变形金刚大电影原音乐》(The Transformers: The Movie - Original Motion Picture Soundtrack)[FLAC]
  • 简  介  Douban4043373:8.9(130 votes)发行时间: 1992年03月10日
  • 类  别  音乐
  • 小  类  原声音乐


  • 详细介绍简介: mp3 是这个资源
    原声大碟 -《变形金刚大电影原音乐A》(TransFormers OST)变形金刚漫画附赠CD[MP3!]
    amazon 购入
    The Transformers: The Movie - Original Motion Picture Soundtrack [Soundtrack]
    只为那个op
    Lion - The Transformers (Theme)
    flac cue内嵌.
    Audio CD (March 10, 1992)
    Original Release Date: August 8, 1986
    Number of Discs: 1
    Format: Soundtrack
    Label: Volcano
    ASIN: B00000I01C
    bk不日上传

  • 原声大碟 -《变形金刚大电影原音乐》(The Transformers: The Movie - Original Motion Picture Soundtrack)[FLAC]_large

精选评论

REM GENRE Soundtrack
REM DATE 1986
REM DISCID 8108DF0A
REM COMMENT "ExactAudioCopy v0.99pb5"
PERFORMER "Various Artists"
TITLE "Transformers - The Movie (OST)"
FILE "Various Artists - Transformers - The Movie (OST).flac" WAVE
TRACK 01 AUDIO
TITLE "The Touch"
PERFORMER "Stan Bush"
INDEX 00 00:00:00
INDEX 01 00:00:33
TRACK 02 AUDIO
TITLE "Instruments Of Destruction"
PERFORMER "N.R.G."
INDEX 00 03:55:64
INDEX 01 03:56:23
TRACK 03 AUDIO
TITLE "Death Of Optimus Prime"
PERFORMER "Vince DiCola"
INDEX 00 07:18:00
INDEX 01 07:18:43
TRACK 04 AUDIO
TITLE "Dare"
PERFORMER "Stan Bush"
INDEX 00 10:15:73
INDEX 01 10:16:20
TRACK 05 AUDIO
TITLE "Nothin's Gonna Stand in Our Way"
PERFORMER "Spectre General"
INDEX 00 14:17:38
INDEX 01 14:18:53
TRACK 06 AUDIO
TITLE "The Transformers (Theme)"
PERFORMER "Lion"
INDEX 00 17:56:55
INDEX 01 17:57:60
TRACK 07 AUDIO
TITLE "Escape"
PERFORMER "Vince DiCola"
INDEX 00 21:32:23
INDEX 01 21:32:55
TRACK 08 AUDIO
TITLE "Hunger"
PERFORMER "Spectre General"
INDEX 00 26:18:63
INDEX 01 26:19:28
TRACK 09 AUDIO
TITLE "Autobot-Decepticon Battle"
PERFORMER "Vince DiCola"
INDEX 00 30:03:53
INDEX 01 30:05:73
TRACK 10 AUDIO
TITLE "Dare To Be Stupid"
PERFORMER "'Weird Al' Yankovic"
INDEX 01 34:23:43
Exact Audio Copy V0.99 prebeta 5 from 4. May 2009

EAC 抓取日志文件从15. 三月 2010, 10:45

Various Artists / Transformers - The Movie (OST)

使用驱动器 :Optiarc DVD RW AD-7910S Adapter: 1 ID: 0

读取模式 : 保护
使用精确流 : 是
废除音频缓冲 : 否
使用 C2 指针 : 否

读取偏移校正 : 48
读取 Lead-In 和 Lead-Out : 否
用静音填充抓取中丢失偏移的采样 : 是
去除首尾静音块 : 否
在 CRC 计算中使用了空样本 : 否
已用接口 : Win NT 及 2000 本地 Win32 接口

所用输出格式 : 内部 WAV 函数
样本格式 : 44.100 Hz;16 Bit;立体声


被抓轨 CD 的 TOC

音轨 | 开始 | 长度 | 起始扇区 | 结尾扇区
--------------------------------------------------
1 | 0:00.33 | 3:55.65 | 33 | 17722
2 | 3:56.23 | 3:22.20 | 17723 | 32892
3 | 7:18.43 | 2:57.52 | 32893 | 46219
4 | 10:16.20 | 4:02.33 | 46220 | 64402
5 | 14:18.53 | 3:39.07 | 64403 | 80834
6 | 17:57.60 | 3:34.70 | 80835 | 96954
7 | 21:32.55 | 4:46.48 | 96955 | 118452
8 | 26:19.28 | 3:46.45 | 118453 | 135447
9 | 30:05.73 | 4:17.45 | 135448 | 154767
10 | 34:23.43 | 3:27.69 | 154768 | 170361


范围状态及错误

已选择范围

文件名 X:Various Artists - Transformers - The Movie (OST).wav

可疑位置 0:02:41

峰值电平 100.0 %
范围质量 99.9 %
复制 CRC D1069634
复制结束

出现错误


AccurateRip 概要

音轨 1 无法精确校验 (确认 13) [30E6C849], AccurateRip 返回 [D009C22F]
音轨 2 已正确抓取 (确认 7) [3DA41D2B]
音轨 3 无法精确校验 (确认 11) [EBCF40F2], AccurateRip 返回 [D64B92B0]
音轨 4 无法精确校验 (确认 13) [6ED0564D], AccurateRip 返回 [6CE1AC14]
音轨 5 已正确抓取 (确认 7) [CCF56DF1]
音轨 6 已正确抓取 (确认 7) [C8EC1953]
音轨 7 已正确抓取 (确认 7) [81901898]
音轨 8 已正确抓取 (确认 7) [B789B6C3]
音轨 9 已正确抓取 (确认 7) [BAA54D8F]
音轨 10 已正确抓取 (确认 7) [3D7E0FFF]

7 音轨已被精确抓取
3 音轨校验不准确

某些音轨无法被精确验证

状态报告结尾
无源的话,请pm我
VeryCD真让人伤心.