Leonard Bernstein雷昂纳德•伯恩斯坦 -《大峡谷与密西西比河组曲》(Ferde Grofe Grand Canyon and Mississippi Suites)报纸版[FLAC]

Leonard Bernstein雷昂纳德•伯恩斯坦 -《大峡谷与密西西比河组曲》(Ferde Grofe Grand Canyon and Mississippi Suites)报纸版[FLAC]
  • 片  名  Leonard Bernstein雷昂纳德•伯恩斯坦 -《大峡谷与密西西比河组曲》(Ferde Grofe Grand Canyon and Mississippi Suites)报纸版[FLAC]
  • 简  介  古典类型: 交响曲发行时间: 1990年
  • 类  别  音乐
  • 小  类  古典音乐


  • 详细介绍专辑英文名: Ferde Grofe Grand Canyon and Mississippi Suites专辑中文名: 大峡谷与密西西比河组曲艺术家: Leonard Bernstein雷昂纳德•伯恩斯坦古典类型: 交响曲资源格式: FLAC版本: 报纸版发行时间: 1990年地区: 美国语言: 英语简介: 作曲: Ferde Grofe菲尔德•格罗菲
    钢琴:Rudolf Serkin 鲁道夫•塞尔金
    指挥:Leonard Bernstein雷昂纳德•伯恩斯坦
    指挥:Andre Kostelanetz安德烈•柯斯特兰尼兹
    乐团: New York Philharmonic
    唱片公司:Sony
    唱片编号:MYK 37759
    资源出处:原版CD抓轨 (Flac+Cue+Log)
    专辑介绍:
    菲尔德•格罗菲 (Ferde Grofe,1892-1972),美国二十世纪著名作曲家、小提琴家和钢琴家。他对美国现代音乐的创立与发展作出了很大贡献。格罗菲的作品富于描写性,音响色彩清澈明朗,具有美国的民族风格。他把古典音乐和美国爵士音乐的表现手法巧妙地结合在一起,使他的作品音乐语言洗炼而又通俗易懂,既有美国民族气质又具有欧洲音乐的传统特色。在他的作品中,以描绘亚利桑那州北部自然风光的管弦乐组曲《大峡谷》最为著名。 《密西西比河组曲》 、 《好莱坞组曲》 、 《加利福尼亚组曲》等也颇受音乐听众的欢迎。
    大峡谷组曲:是一部绘画般的作品。作曲家在曲中适当揉合进了一些爵士乐的手法,既丰富了乐曲的内涵,又为乐曲带来了轻松活泼的气氛, 更重要的是增添了乐曲本身的“美国气质”。
    第一乐章 “日出”:这是一幅沙漠上日出的风景画。 朝霞在黑暗的夜幕上洒上了黎明的彩色斑点。当太阳从地平线上冉冉升起时,彩光四射的辉耀宣告了新的一天的来到。
    第二乐章 “五光十色的沙漠”: 沙漠是寂静神秘的,同时也是美丽迷人的。当太阳明亮的光线反射到雄伟的岩壁上时,五光十色的光芒倾泻于大峡谷附近的沙地上,好似在巨大的画布上浓重地涂满了大自然本身的种种混合颜料。
    第三乐章 “在山径上”: 一名游客骑着小毛驴行进在大峡谷的山径上,驴蹄的“哒哒”声为牧童的歌声提供了一个不寻常的节奏背景。突然,越走越快的小毛驴滑了一下,把游客着实吓了一 跳,随之单簧管形象地模仿出驴叫声,幽默的氛围令人忍俊不禁。游客继续骑驴前行,潺潺的流水声描绘出科罗拉多河瀑布的美景。不久,一所孤零零的小屋映入眼帘,当游客走近小屋时,可以听到八音盒发出的叮咚声,游客们在小屋前歇息片刻后,以更轻快活跃的步伐继续前行,最后消失在远方。
    第四乐章 “日落”: 一道夜晚的阴影在金黄色的天际掠过。黄昏时分的平和与幽暗慢慢降临到峡谷上。而当夜幕将峡谷笼罩在它黑暗的斗篷中时,远处传来了几声野兽凄厉的叫声。
    第五乐章 “大暴雨”:大峡谷的暴雨格外壮观。转瞬之间,闪电划破漆黑的夜空,勾勒出峡谷岩壁的轮廓;震耳欲聋的雷声不绝于耳; 暴风骤雨铺天盖地席卷而来,具有压倒一切的威势。 雨过天晴,大峡谷在月光中展现出焕然一新的英姿,作者用田园诗般的旋律描绘出这一情景。
    密西西比河组曲,共4个乐章:
    第一乐章:河流之父,采用印第安曲调,以描绘大河的壮丽气势。
    第二乐章:哈克贝利•芬,马克•吐温小说中的人物,他逃出家庭束缚,与黑孩子吉姆乘木筏顺密西西比河而下,此乐章采用爵士乐。
    第三乐章:克里奥尔人的往昔,以黑人歌曲为素材,表现在美国出生的黑人对非洲故土的怀恋。
    第四乐章:马底格拉节日,密西西比河流域的四旬斋前的狂欢节。
    雷昂纳德•伯
  • Leonard Bernstein雷昂纳德•伯恩斯坦 -《大峡谷与密西西比河组曲》(Ferde Grofe Grand Canyon and Mississippi Suites)报纸版[FLAC]_large

精选评论

看描述很美啊,绘画般的作品让我很是向往
vc上的稀罕物件,支持。大峡谷是不是头一次在vc上出现?呵呵,感谢楼主奉献。
好喜欢,支持
CUE文件详情:
REM GENRE Classical
REM DATE 1982
REM DISCID 710a8209
REM COMMENT ExactAudioCopy v0.99pb4
PERFORMER "Leonard Bernstein"
TITLE "Ferde Grofe Grand Canyon & Mississippi Suites"
FILE "Leonard.Bernstein.-.[Ferde Grofé.Grand Canyon and Mississippi Suites].专辑.(flac).flac" WAVE
TRACK 01 AUDIO
TITLE "Ferde Grofe / Grand Canyon Suite - I. Sunrise"
FLAGS DCP
INDEX 01 00:00:00
TRACK 02 AUDIO
TITLE "Ferde Grofe / Grand Canyon Suite - II. Painted Desert"
FLAGS DCP
INDEX 00 05:13:06
INDEX 01 05:15:12
TRACK 03 AUDIO
TITLE "Ferde Grofe / Grand Canyon Suite - III. On The Trail"
FLAGS DCP
INDEX 00 11:02:16
INDEX 01 11:03:65
TRACK 04 AUDIO
TITLE "Ferde Grofe / Grand Canyon Suite - IV. Sunset"
FLAGS DCP
INDEX 00 18:28:42
INDEX 01 18:30:07
TRACK 05 AUDIO
TITLE "Ferde Grofe / Grand Canyon Suite - V. Cloudburst"
FLAGS DCP
INDEX 00 23:53:46
INDEX 01 23:55:47
TRACK 06 AUDIO
TITLE "Ferde Grofe / Mississippi Suite - I. Father Of The Waters"
FLAGS DCP
INDEX 00 33:00:16
INDEX 01 33:02:27
TRACK 07 AUDIO
TITLE "Ferde Grofe / Mississippi Suite - II. Huckleberry Finn"
FLAGS DCP
INDEX 00 36:07:69
INDEX 01 36:10:05
TRACK 08 AUDIO
TITLE "Ferde Grofe / Mississippi Suite - III. Old Creole Days"
FLAGS DCP
INDEX 00 38:27:16
INDEX 01 38:28:70
TRACK 09 AUDIO
TITLE "Ferde Grofe / Mississippi Suite - IV. Mardi Gras"
FLAGS DCP
INDEX 00 40:58:47
INDEX 01 41:00:17

LOG文件详情:
Exact Audio Copy V0.99 prebeta 4 from 23. January 2008

EAC 抓取日志文件从3. 六月 2009, 15:16

Leonard Bernstein / Ferde Grofe Grand Canyon & Mississippi Suites

使用驱动器 :HL-DT-STDVD-ROM GDR8164B Adapter: 3 ID: 1

读取模式 : 保护
使用精确流 : 是
废除音频缓冲 : 是
使用 C2 指针 : 否

读取偏移校正 : 102
读取 Lead-In 和 Lead-Out : 否
用静音填充抓取中丢失偏移的采样 : 是
去除首尾静音块 : 否
在 CRC 计算中使用了空样本 : 是
已用接口 : Win NT 及 2000 本地 Win32 接口

所用输出格式 : 用户定义的编码器
已选比特率 : 768 kBit/s
质量 : 高
添加 ID3 标签 : 否
命令行压缩器 : C:Program FilesExact Audio CopyFlacflac.exe
附加命令行参数 : -6 -V -T "ARTIST=%a" -T "TITLE=%t" -T "ALBUM=%g" -T "DATE=%y" -T "TRACKNUMBER=%n" -T "GENRE=%m" -T "COMMENT=%e" %s -o %d


被抓轨 CD 的 TOC

音轨 | 开始 | 长度 | 起始扇区 | 结尾扇区
--------------------------------------------------
1 | 0:00.00 | 5:15.12 | 0 | 23636
2 | 5:15.12 | 5:48.53 | 23637 | 49789
3 | 11:03.65 | 7:26.17 | 49790 | 83256
4 | 18:30.07 | 5:25.40 | 83257 | 107671
5 | 23:55.47 | 9:06.55 | 107672 | 148676
6 | 33:02.27 | 3:07.53 | 148677 | 162754
7 | 36:10.05 | 2:18.65 | 162755 | 173169
8 | 38:28.70 | 2:31.22 | 173170 | 184516
9 | 41:00.17 | 4:06.28 | 184517 | 202994


范围状态及错误

已选择范围

文件名 D:Leonard Bernstein - Ferde Grofe Grand Canyon & Mississippi Suites.wav

峰值电平 100.0 %
范围质量 100.0 %
复制 CRC FAEA7EBE
复制成功

没有错误发生

状态报告结尾

AUDIOCHECKER音频检测软件检测结果:
AUDIOCHECKER v2.0 beta (build 457) - by Dester - opdester@freemail.hu
~~~~~~~~~~~~~~~~~~~~~~~~~~~~~~~~~~
-=== DO NOT EDIT THIS FILE! ===-

Path: D:

1 -=- Leonard Bernstein - Ferde Grofe Grand Canyon & Mississippi Suites.flac -=- CDDA (100%)

60932628
世界著名组曲只差格罗菲的《大峡谷组曲》,前段时间在VC上找不到,现在有了。非常感谢楼主!!
非常感谢 谢谢分享 谢谢楼主发布的资源
啊,这是我一直梦寐以求的最喜欢的音乐 谢谢楼主的辛勤劳动 谢谢分享!
谢谢分享
报纸版的一点不亚于什么“三星带花”……
呵呵!
谢谢分享!
报纸版!好!好!有—张下—张!不过也仅下到十多张!vc上发的好多都下架了。可惜
瓦尔特的贝六上过TAS榜,不过仅指CD报纸版而言,因为该版本也出过其他系列的CD,可见CBS报纸版系列不仅所选曲目演绎优秀,而且音效也绝对一流。




大峡谷的版本不少啊。
好睇,感谢