滨崎步(Ayumi Hamasaki) -《梦游仙境》(Fairyland)36th单曲[APE]

滨崎步(Ayumi Hamasaki) -《梦游仙境》(Fairyland)36th单曲[APE]
  • 片  名  滨崎步(Ayumi Hamasaki) -《梦游仙境》(Fairyland)36th单曲[APE]
  • 简  介  发行时间: 2005年08月03日地区: 大陆语言: 日语
  • 类  别  音乐
  • 小  类  日韩音乐


  • 详细介绍专辑中文名: 梦游仙境专辑英文名: Fairyland歌手: 滨崎步(Ayumi Hamasaki)资源格式: APE版本: 36th单曲发行时间: 2005年08月03日地区: 大陆语言: 日语简介:
    专辑介绍:
    每次推出新碟也会以全新形象示人的潮流女皇滨崎步,在2005夏天为你带来全新单曲《fairyland》。
    fairyland虽然曲风明快,歌词却蕴藏着非常深远的意味。滨崎步在歌中写出了她对乌托邦的看法。碟中也收录另一首新曲「alterna」、以及「STEP you」和「fairyland」的混音版。为了令这张单曲散发夏天的气息,滨崎步更远赴夏威夷拍摄唱片封面。
    档案来源:原创供档(发布人首次压缩制作发布)
    供档方式:自供档(原创资源)
    供源时间:9:00-21:00
  • 滨崎步(Ayumi Hamasaki) -《梦游仙境》(Fairyland)36th单曲[APE]_large

精选评论

请问楼主什么时候做种,我很喜欢这首歌,但是我现在下不了,请楼主帮我做种呀,谢谢了
求源啊……
CUE文件代码(用记事本保存为CUE):

PERFORMER "Ayumi Hamasaki"
TITLE "Fairyland"
FILE "滨崎步(Ayumi.Hamasaki).-.[Fairyland].单曲.(ape).ape" WAVE
TRACK 01 AUDIO
TITLE "01.Fairyland Original Mix"
PERFORMER "Ayumi Hamasaki"
INDEX 01 00:00:00
TRACK 02 AUDIO
TITLE "02.Alterna Original Mix"
PERFORMER "Ayumi Hamasaki"
INDEX 00 05:16:47
INDEX 01 05:18:10
TRACK 03 AUDIO
TITLE "03.Step you DJ TAKI-SHIT More Step Up Remix"
PERFORMER "Ayumi Hamasaki"
INDEX 00 10:44:42
INDEX 01 10:47:00
TRACK 04 AUDIO
TITLE "04.Fairyland Bright Field Mix"
PERFORMER "Ayumi Hamasaki"
INDEX 00 15:00:55
INDEX 01 15:03:12
TRACK 05 AUDIO
TITLE "05.Fairyland Original Mix Instrumental"
PERFORMER "Ayumi Hamasaki"
INDEX 00 20:32:32
INDEX 01 20:33:70
TRACK 06 AUDIO
TITLE "06.Alterna Original Mix Instrumental"
PERFORMER "Ayumi Hamasaki"
INDEX 00 25:50:42
INDEX 01 25:52:05
超喜欢这首歌……让人感觉如此激动。